论坛风格切换永遠の窄版
  • 112阅读
  • 5回复

[自抓][Baidu][160217] kain、すぃ、rairu - 灯響プラグレス [FLAC分轨+CUE+LOG] [复制链接]

上一主题 下一主题
离线zukuni
 
发帖
63
『♭』
142
『D』
1
『♥』
2
『∮』
7
『C』
1

僕らは共鳴し合った。

アンプラグドな音にアレンジされたボカロ曲やJ-POPの
グッドミュージックが収録されたコンピレーション。
SNSミュージックシーンで活躍するkain、すぃ、rairu が歌唱。




曲目列表
三只小天使良心的Vocaloid翻唱专
个人推荐1、7、11曲目呢


新人在水够50贴后第一次发资源QWQ
请多多支持QAQ

限制700b,5C或者1D积分(满足其一即可)

禁止转载 链接: https://pan.baidu.com/s/1c2rNYI8

此帖售价 12 『♭』,已有 1 人购买 [记录] [购买]
购买后,将显示帖子中所有出售内容。
若发现会员采用欺骗的方法获取财富,请立刻举报,我们会对会员处以2-N倍的罚金,严重者封掉ID!
此段为出售的内容,购买后显示


自抓证明:



[ 此帖被zukuni在2017-07-27 16:32重新编辑 ]
本主题包含附件,请 登录 后查看, 或者 注册 成为会员
5条评分『♥』+1『C』+1『∮』+7『D』+1『♭』+7
rorikon 『♭』 +7 投币支持 07-27
rorikon 『♥』 +1 This is Sparta! 07-27
rorikon 『∮』 +7 又帅又强 07-27
rorikon 『D』 +1 07-27
rorikon 『C』 +1 资源帖奖励 07-27
离线zukuni
发帖
63
『♭』
142
『D』
1
『♥』
2
『∮』
7
『C』
1
只看该作者 沙发  发表于: 07-27
终于忙完了,睡觉~
1条评分『♥』+1
rorikon 『♥』 +1 (´・ω・`) 07-27
离线rorikon
发帖
5577
『♭』
339
『D』
17
『♥』
276
『∮』
124
『C』
45
只看该作者 板凳  发表于: 07-27
log贴一下    (´・ω・`)
离线zukuni
发帖
63
『♭』
142
『D』
1
『♥』
2
『∮』
7
『C』
1
只看该作者 地板  发表于: 07-28
Exact Audio Copy V1.0 beta 2 from 29. April 2011

EAC extraction logfile from 10. November 2016, 13:14

歌ってみた / 灯響プラグレス

Used drive  : MATSHITAUJDA770 DVD/CDRW   Adapter: 0  ID: 0

Read mode               : Secure
Utilize accurate stream : Yes
Defeat audio cache      : Yes
Make use of C2 pointers : No

Read offset correction                      : 102
Overread into Lead-In and Lead-Out          : No
Fill up missing offset samples with silence : Yes
Delete leading and trailing silent blocks   : No
Null samples used in CRC calculations       : No
Used interface                              : Native Win32 interface for Win NT & 2000

Used output format : Internal WAV Routines
Sample format      : 44.100 Hz; 16 Bit; Stereo


TOC of the extracted CD

     Track |   Start  |  Length  | Start sector | End sector
    ---------------------------------------------------------
        1  |  0:00.00 |  2:43.44 |         0    |    12268  
        2  |  2:43.44 |  5:07.67 |     12269    |    35360  
        3  |  7:51.36 |  7:17.52 |     35361    |    68187  
        4  | 15:09.13 |  4:50.22 |     68188    |    89959  
        5  | 19:59.35 |  1:22.37 |     89960    |    96146  
        6  | 21:21.72 |  4:37.22 |     96147    |   116943  
        7  | 25:59.19 |  4:06.14 |    116944    |   135407  
        8  | 30:05.33 |  4:35.51 |    135408    |   156083  
        9  | 34:41.09 |  5:44.44 |    156084    |   181927  
       10  | 40:25.53 |  5:42.59 |    181928    |   207636  
       11  | 46:08.37 |  4:38.44 |    207637    |   228530  
       12  | 50:47.06 |  5:36.42 |    228531    |   253772  


Range status and errors

Selected range

     Filename D:\Pro\无损\自抓\灯響プラグレス\歌ってみた - 灯響プラグレス.wav

     Peak level 100.0 %
     Extraction speed 3.6 X
     Range quality 99.9 %
     Copy CRC F461008E
     Copy OK

No errors occurred


AccurateRip summary

Track  1  accurately ripped (confidence 1)  [F576289C]  (AR v2)
Track  2  accurately ripped (confidence 1)  [E543EA7C]  (AR v2)
Track  3  accurately ripped (confidence 1)  [2D53757A]  (AR v2)
Track  4  accurately ripped (confidence 1)  [40752CEA]  (AR v2)
Track  5  accurately ripped (confidence 1)  [A94D9049]  (AR v2)
Track  6  accurately ripped (confidence 1)  [35ABF22E]  (AR v2)
Track  7  accurately ripped (confidence 1)  [861BB4DB]  (AR v2)
Track  8  accurately ripped (confidence 1)  [9EE34A02]  (AR v2)
Track  9  accurately ripped (confidence 1)  [4373E487]  (AR v2)
Track 10  accurately ripped (confidence 1)  [182E62DB]  (AR v2)
Track 11  accurately ripped (confidence 1)  [94013229]  (AR v2)
Track 12  accurately ripped (confidence 1)  [EC9E5612]  (AR v2)

All tracks accurately ripped

End of status report
离线zukuni
发帖
63
『♭』
142
『D』
1
『♥』
2
『∮』
7
『C』
1
只看该作者 4坟墓  发表于: 07-28
回 rorikon 的帖子
rorikon:log贴一下    (´・ω・`) (2017-07-27 23:50) 

已贴在楼下 =w=
1条评分『♭』+1
rorikon 『♭』 +1 ok 07-28
离线leo821024
发帖
338
『♭』
4000
『D』
6
『♥』
8
『∮』
37
『C』
6
只看该作者 5 希腊  发表于: 08-02
每首都很經典呢