论坛风格切换永遠の窄版
  • 215阅读
  • 1回复

[自抓][121128]  いとうかなこ - カオスロジック  (wav+cue) [复制链接]

上一主题 下一主题
离线anaraky
 
发帖
4
『♭』
18
『D』
1
『♥』
0
『∮』
7
『C』
1



登録情報CD (2012/11/28)
ディスク枚数: 1フォーマット: Single, Maxi
レーベル: メディアファクトリー収録時間: 20 分
ASIN: B009D0WL1OJAN: 4582325372605

曲目リスト

1. PS3ソフト「CHAOS;HEAD NOAH」OPテーマ「カオスロジック」
2. TVアニメ「カオスヘッド」【Blu - ray】EDテーマ「D.P.」
3. PS3ソフト「CHAOS;HEAD NOAH」OPテーマ「カオスロジック」(off vocal)
4. TVアニメ「カオスヘッド」【Blu - ray】EDテーマ「D.P.」(off vocal)


内容紹介
科学アドベンチャーシリーズ第1弾「CHAOS;HEAD」シリーズが今度はPS3に移植決定!
PS3ソフト「CHAOS;HEAD NOAH」から、いとうかなこの歌うOPテーマがリリース! !

★科学アドベンチャーシリーズの記念すべき第1弾ソフト「CHAOS;HEAD」シリーズが今度はPS3に移植して再登場!
2012年11月22日発売予定のPS3ソフト「CHAOS;HEAD NOAH」からOPテーマがリリース! ! 妄想は再び現実を浸食する!

★オープニングテーマを担当するのは、ゲームソングの歌姫?いとうかなこ! 作詞?作曲は、科学アドベンチャーシリーズの生みの親?志倉千代丸! !

★2012年11月21日に発売されるTVアニメ「カオスヘッド」Blu-ray BOXに収録される新エンディングテーマをCD初収録! !


発売元:5pb.

(c)2008-2012 5pb./Nitoroplus/RED FLAGSHIP (c)2008 CHAOS;HEAD制作委員会
メディア掲載レビューほか
科学アドベンチャーシリーズ第1弾『CHAOS;HEAD』シリーズが今度はPS3に移籍。オープニング?テーマを担当するのは、ゲームソングの歌姫 いとうかなこ。作詞?作曲には科学アドベンチャーシリーズの生みの親 志倉千代丸。 (C)RS

自购证明

Log:
  1. Exact Audio Copy V1.3 from 2. September 2016
  2. EAC 抓取日志文件从19. 七月 2017, 19:49
  3. いとうかなこ / カオスロジック
  4. 使用驱动器  :TSSTcorpCDDVDW TS-H653F   Adapter: 1  ID: 0
  5. 读取模式      : 可靠Secure
  6. 使用精确流     : 是
  7. 清空音频缓存    : 否
  8. 使用 C2 指示器 : 否
  9. 读取偏移校正:               : 6
  10. 读取 Lead-In 和 Lead-Out : 否
  11. 用静音填充抓取中丢失偏移的采样       : 是
  12. 去除首尾静音块               : 否
  13. 在CRC 计算中使用了空样本       : 是
  14. 已用接口                  : Win NT 及 2000 本地 Win32 接口
  15. 所用输出模式: : 内部 WAV 函数
  16. 样本格式    : 44.100 Hz; 16 Bit; 立体声
  17. 已抓取 CD 的 TOC
  18.      音轨 |    起始    |    长度    |  起始扇区  |  结束扇区  
  19.     --------------------------------------------
  20.       1 |  0:00.00 |  4:33.41 |      0 |  20515
  21.       2 |  4:33.41 |  4:37.03 |  20516 |  41293
  22.       3 |  9:10.44 |  4:32.67 |  41294 |  61760
  23.       4 | 13:43.36 |  4:35.28 |  61761 |  82413
  24. 范围状态及错误
  25. 已选择范围
  26.      文件名 D:\Music\いとうかなこ - カオスロジック.wav
  27.      峰值电平 99.8 %
  28.      抓取速度 3.4 X
  29.      范围质量 100.0 %
  30.      测试 CRC F95F9027
  31.      复制 CRC F95F9027
  32.      复制成功
  33. 没有错误发生
  34. 状态报告结尾




社长我信你!

百度盘
限制100b,1C或者1D积分(满足其一即可)
禁止转载



此帖售价 1 『♭』,已有 2 人购买 [记录] [购买]
购买后,将显示帖子中所有出售内容。
若发现会员采用欺骗的方法获取财富,请立刻举报,我们会对会员处以2-N倍的罚金,严重者封掉ID!
此段为出售的内容,购买后显示
[ 此帖被anaraky在2017-07-19 21:40重新编辑 ]
本主题包含附件,请 登录 后查看, 或者 注册 成为会员
4条评分『C』+1『∮』+7『D』+1『♭』+7
rorikon 『♭』 +7 投币支持 07-19
rorikon 『∮』 +7 (´・ω・`) 07-19
rorikon 『D』 +1 07-19
rorikon 『C』 +1 资源帖奖励 07-19
离线scpsscps1
发帖
1164
『♭』
16082
『D』
0
『♥』
5
『∮』
0
『C』
0
只看该作者 沙发  发表于: 08-03
感謝。。 最近補個檔案