论坛风格切换永遠の窄版
  • 1853阅读
  • 16回复

[110720]TVアニメ「異国迷路のクロワーゼ」OP&ED「世界は踊るよ、君と。ここからはじまる物語」(ape+cue+png) [复制链接]

上一主题 下一主题
离线911
 
发帖
3852
『♭』
0
『D』
14
『♥』
87
『∮』
109
『C』
20
只看楼主 倒序阅读 使用道具 楼主  发表于: 2011-07-29
— 本帖被 八云蓝 从 非同人資源分享區 移动到本区(2011-12-29) —


商品番号 VTCL-35108
JAN 4580226569575  
メディア マキシシングル CD  
組枚数 1
発売日 2011/07/20

アーティスト/ キャスト
羊毛とおはな 東山奈央(湯音)

内容
19世紀末ーパリ、優しくて小さな出逢いの物語。TVアニメーション「異国迷路のクロワーゼ」OP&EDのカップリングシングル! カフェサウンドで支持されているアコースティックデュオ・羊毛とおはなによるオープニング曲と若手新人声優として注目されている東山奈央(19歳)によるエンディング曲を1枚に収録。美しい音楽と美しい世界観に浸れるアニメ主題歌シングル!

収録曲
1. 世界は踊るよ、君と。
作詞・千葉はな  作曲・千葉はな  編曲・市川和則
2. ここからはじまる物語
作詞・山口みなこ  作曲・松浦みつを  編曲・保刈久明
3. 世界は踊るよ、君と。 (instrumental)
4. ここからはじまる物語 (instrumental)

網盤下載:
本部分内容设定了隐藏,需要回复后才能看到

本主题包含附件,请 登录 后查看, 或者 注册 成为会员
2条评分
wuzhanxing 〖B〗 +5 封面实在太可爱 没办法 2011-07-29
rorikon 〖B〗 +7 你是好人 2011-07-29
离线沉淀
发帖
825
『♭』
4201
『D』
0
『♥』
4
『∮』
0
『C』
0
只看该作者 沙发  发表于: 2011-07-29
這個有bk啊啊.收了
离线初恋限定
发帖
570
『♭』
616
『D』
5
『♥』
18
『∮』
30
『C』
5
只看该作者 板凳  发表于: 2011-07-29
不太了解这个动漫.下来听听
离线xiaoqqi
发帖
291
『♭』
422
『D』
0
『♥』
7
『∮』
0
『C』
0
只看该作者 地板  发表于: 2011-07-29
回 2楼(初恋限定) 的帖子
女主十分卖萌,ED十分治愈
离线初恋限定
发帖
570
『♭』
616
『D』
5
『♥』
18
『∮』
30
『C』
5
只看该作者 4坟墓  发表于: 2011-07-29
哦,新番啊,那我就不知道了
离线limitarea
发帖
1045
『♭』
1015
『D』
0
『♥』
6
『∮』
0
『C』
0
只看该作者 5 希腊  发表于: 2011-07-29
回 3楼(xiaoqqi) 的帖子
此ED必须少听 否则会被治愈死的 @_@
离线團子
发帖
3057
『♭』
5
『D』
1
『♥』
49
『∮』
7
『C』
1
只看该作者 6天桥  发表于: 2011-07-29
我是为了封面而已...
离线初恋限定
发帖
570
『♭』
616
『D』
5
『♥』
18
『∮』
30
『C』
5
只看该作者 7奶奶的大腿  发表于: 2011-07-29
-.-我有闲的没事干了
去处cue乱码

REM DATE 2011-07-20
REM DISCID 28043404
CATALOG 4580226569575
PERFORMER "異国迷路のクロワーゼ The Animation"
TITLE "世界は踊るよ、君と。/ここからはじまる物語"
FILE "VTCL-35108.ape" WAVE
  TRACK 01 AUDIO
    TITLE "世界は踊るよ、君と。"
    PERFORMER "羊毛とおはな"
    ISRC JPG751100200
    INDEX 01 00:00:00
  TRACK 02 AUDIO
    TITLE "ここからはじまる物語"
    PERFORMER "湯音(東山奈央)"
    ISRC JPG751100201
    INDEX 00 03:49:50
    INDEX 01 03:52:33
  TRACK 03 AUDIO
    TITLE "世界は踊るよ、君と。 (instrumental)"
    PERFORMER "羊毛とおはな"
    ISRC JPG751100202
    INDEX 00 08:56:03
    INDEX 01 09:00:60
  TRACK 04 AUDIO
    TITLE "ここからはじまる物語 (instrumental)"
    PERFORMER "湯音(東山奈央)"
    ISRC JPG751100203
    INDEX 00 12:50:10
    INDEX 01 12:52:68
离线dfqwgj
发帖
1231
『♭』
1100
『D』
0
『♥』
6
『∮』
0
『C』
0
只看该作者 8蓝的尾巴  发表于: 2011-07-29
要了
离线theea
发帖
642
『♭』
551
『D』
0
『♥』
8
『∮』
0
『C』
0
只看该作者 ⑨十二号公路  发表于: 2011-07-30
op和ed和在一起了,不错
离线kei8864
发帖
768
『♭』
38
『D』
0
『♥』
28
『∮』
0
『C』
0
只看该作者 10楼 发表于: 2011-07-30
BK~~~~

THANKS~~~
:)
离线茄子党
发帖
910
『♭』
1172
『D』
5
『♥』
29
『∮』
31
『C』
5
只看该作者 11楼 发表于: 2011-07-30
嘛,对异国表示无兴趣,话说谈酱这碟子是不是别人发过了?好像是发无BK版本的,
很有印象啊。
离线htthgt
发帖
21
『♭』
78
『D』
0
『♥』
0
『∮』
0
『C』
0
只看该作者 12楼 发表于: 2011-08-07

這部OP超棒~
离线genekiller
发帖
2765
『♭』
12
『D』
0
『♥』
48
『∮』
0
『C』
42
只看该作者 13楼 发表于: 2012-01-21
我来了的说
离线vooms
发帖
228
『♭』
4263
『D』
3
『♥』
6
『∮』
12
『C』
3
只看该作者 14楼 发表于: 2014-10-27
很可惜 後面的歌曲都不錯聽 但是就是沒有人要壓制CD和掃BK!!
离线漢字
发帖
4
『♭』
25
『D』
0
『♥』
0
『∮』
0
『C』
0
只看该作者 15楼 发表于: 02-20
很有印象啊
离线漢字
发帖
4
『♭』
25
『D』
0
『♥』
0
『∮』
0
『C』
0
只看该作者 16楼 发表于: 02-20
很有印象啊