论坛风格切换永遠の窄版
  • 5477阅读
  • 56回复

[音樂][110612] [ボーマス16] [Various Artists - Sequence] (3wav+3cue) [复制链接]

上一主题 下一主题
离线烂翔
 
发帖
4007
『♭』
7433
『D』
2
『♥』
217
『∮』
17
『C』
206
只看楼主 倒序阅读 使用道具 楼主  发表于: 2011-07-19
— 本帖被 rorikon 从 VOC@LOiD同人專區 移动到本区(2011-12-30) —


ボカロP

millstones 市蔵 YM kouki 鬱P takamatt ミュムP
ゆちゃP まももP すずきP ふゆP ぼーかりおどP シメサバツイスターズ buzzG
APG550 k_zero+A アリエP uzP TEMB/ブランコP ショミ 150P
kous 糞田舎P スバル ライブP (仮)P 骨盤P フェイP
八王子P すけっちP KulfiQ whoo イトカワP かごめP ←P
風呂埋葬P ぽわぽわP Nem れるりり かどまつ nana おにゅうP

絵師

ピスケ HND akka vient 有坂あこ ドラ スス
夜宵 ばたこ 縣 りょーの 詩織 紅雪 草
くろまろ シロまゆ nomore hie mille まつとり マニャ子
さいね 鴨。 北乃友利@ゆーりん BUZZ natsu 水玉子 おハル
MACCO 矛盾 atsuki mirto こみね あがたのみち 夢之式
霜村 タスク たま ぶーた はんにゃG ハツ子 和音

流通

発売 2011年6月12日
価格 ¥3,500 ¥4,200(税込)
サークル +one

CD紹介

全てが描き下ろし。全てが新曲。絵師42人×楽師42人の豪華メンバーによる合同画集&コンピレーションアルバム。
「過去」・「現在」・「未来」 3つのテーマから、絵師のイメージを楽師が曲にするという完全絵師先行型の企画。
仕様は、CD3枚組(各14曲収録)+A4 フルカラー 100P のブックレット。
マスタリングは 友達募集P ・ さつまぐり氏 ・ かごめP の3人が担当している。
THE VOC@LOiD M@STER 16(ボーマス16)にてリリース。
Amazonにて委託販売が行われている。とらのあなでも委託予定。


DISC 1 過去-past-  
曲名 イラスト担当 × 作詞・作曲
01 わがままキャンバス ピスケ × millstones
02 オートマタの夢 HND × 市蔵
03 心相ノイジー akka × YM
04 Breakthrough vient × kouki
05 ブラックホールアーティスト 有坂あこ × 鬱P
06 Girls, be ambitious!! ドラ × takamatt
07 プラスチックの涙 スス × ミュムP
08 水葬カタルシス 夜宵 × ゆちゃP
09 L'abbaye ばたこ × まももP
10 ノクターン 縣 × すずき
11 紫綴の街路樹 りょーの × ふゆP
12 忘れない花 詩織 × ぼーかりおどP(noa)
13 Purple innocent! 紅雪 × シメサバツイスターズ
14 タイム・カプセル 草 × buzzG


DISC 2 現在-present-  
曲名 イラスト担当 × 作詞・作曲
01 marginal tune くろまろ × APG550
02 歩く一昨日ティータイム シロまゆ × k_zero+A
03 ワールドワイドアンダーグラウンド nomore × アリエP
04 何時何分何秒地球が何回回ったころ? hie × uzP
05 マリッジブルー mille × TEMB/ブランコP
06 連立ビフォーアフター まつとり × ショミ(般P)
07 Soconite マニャ子 × 150P
08 Acrylic さいね × kous
09 ピースフルデイズ 鴨。 × 糞田舎P
10 feel! feel! feel! 北乃友利@ゆーりん × スバル(レガP)
11 Bookmark BUZZ × ライブP
12 ヨルに帰る花 natsu × (仮)P
13 Rain 水玉子 × 骨盤P
14 サルビア おハル × フェイP


DISC 3 未来-future-  
曲名 イラスト担当 × 作詞・作曲
01 アイポート MACCO × 8#Prince(八王子P)
02 Aether Dance 矛盾 × すけっちP
03 飛べない星 atsuki × KulfiQ
04 カラ、カラ、カラ mirto × whoo
05 テレビ恋話(れんわ) こみね × イトカワP
06 Une étrangère あがたのみち × かごめP
07 S-mail 夢之式 × ←P
08 ハーシェルの大時計 霜村 × 36g(風呂埋葬P)
09 コンテモニア タスク × ぽわぽわP
10 a song flying to you たま × Nem
11 百年の恋-Endless Love- ぶーた × れるりり(当社比P)
12 Ritual はんにゃG × かどまつ
13 Close to you ハツ子 × nana(Sevencolors)
14 タイム真心 和音 × おにゅうP


本部分内容设定了隐藏,需要回复后才能看到


本部分内容设定了隐藏,需要回复后才能看到


本部分内容设定了隐藏,需要回复后才能看到
[ 此帖被小兰兰在2011-07-19 05:31重新编辑 ]
本主题包含附件,请 登录 后查看, 或者 注册 成为会员
4条评分
never海 〖B〗 +1 你是好人 2011-07-19
rorikon 〖C〗 +1 - 2011-07-19
rorikon 〖B〗 +7 三CD撒花 2011-07-19
rorikon 〖B〗 +7 你是好人 2011-07-19
离线烂翔
发帖
4007
『♭』
7433
『D』
2
『♥』
217
『∮』
17
『C』
206
只看该作者 沙发  发表于: 2011-07-19
REM GENRE VOCALOID
REM DATE 2011
REM DISCID C00E9B0E
REM COMMENT ExactAudioCopy v0.99pb5
PERFORMER "Various Artists"
TITLE "Sequence / Disc-Past"
FILE "Various Artists - Sequence DISC 1 過去-past-.wav" WAVE
  TRACK 01 AUDIO
    TITLE "わがままキャンバス"
    PERFORMER "millstones"
    INDEX 01 00:00:00
  TRACK 02 AUDIO
    TITLE "オートマタの夢"
    PERFORMER "市蔵"
    INDEX 01 05:02:70
  TRACK 03 AUDIO
    TITLE "心相ノイジー"
    PERFORMER "ym"
    INDEX 01 09:54:47
  TRACK 04 AUDIO
    TITLE "Breakthrough"
    PERFORMER "kouki"
    INDEX 01 12:37:40
  TRACK 05 AUDIO
    TITLE "ブラックホールアーティスト"
    PERFORMER "鬱P"
    INDEX 01 16:23:66
  TRACK 06 AUDIO
    TITLE "Girls, be ambitious!!"
    PERFORMER "takamatt"
    INDEX 01 20:42:65
  TRACK 07 AUDIO
    TITLE "プラスチックの涙"
    PERFORMER "ミュムP"
    INDEX 01 25:09:46
  TRACK 08 AUDIO
    TITLE "水葬カタルシス"
    PERFORMER "ゆちゃP"
    INDEX 01 29:12:69
  TRACK 09 AUDIO
    TITLE "L'abbaye"
    PERFORMER "まもも"
    INDEX 01 33:36:00
  TRACK 10 AUDIO
    TITLE "ノクターン"
    PERFORMER "すずきP"
    INDEX 01 39:42:04
  TRACK 11 AUDIO
    TITLE "紫綴の街路樹"
    PERFORMER "ふゆ"
    INDEX 01 43:21:73
  TRACK 12 AUDIO
    TITLE "忘れない花"
    PERFORMER "ぼーかりおどP (noa)"
    INDEX 01 48:36:62
  TRACK 13 AUDIO
    TITLE "Purple innocent!"
    PERFORMER "シメサバツイスターズ"
    INDEX 01 53:30:47
  TRACK 14 AUDIO
    TITLE "タイム?カプセル"
    PERFORMER "buzzG"
    INDEX 00 57:40:52
    INDEX 01 57:42:51
离线烂翔
发帖
4007
『♭』
7433
『D』
2
『♥』
217
『∮』
17
『C』
206
只看该作者 板凳  发表于: 2011-07-19
REM GENRE VOCALOID
REM DATE 2011
REM DISCID C10D6A0E
REM COMMENT ExactAudioCopy v0.99pb5
PERFORMER "Various Artists"
TITLE "Sequence / Disc-Present"
FILE "Various Artists - Sequence DISC 2 現在-present-.wav" WAVE
  TRACK 01 AUDIO
    TITLE "marginal tune"
    PERFORMER "APG550"
    INDEX 01 00:00:00
  TRACK 02 AUDIO
    TITLE "歩く一昨日ティータイム"
    PERFORMER "k_zero+A"
    INDEX 00 03:35:02
    INDEX 01 03:37:01
  TRACK 03 AUDIO
    TITLE "ワールドワイドアンダーグラウンド"
    PERFORMER "アリエP"
    INDEX 00 07:28:41
    INDEX 01 07:30:40
  TRACK 04 AUDIO
    TITLE "何時何分何秒地球が何回回ったころ?"
    PERFORMER "uzP"
    INDEX 00 11:09:25
    INDEX 01 11:11:24
  TRACK 05 AUDIO
    TITLE "マリッジブルー"
    PERFORMER "TEMB"
    INDEX 00 15:06:69
    INDEX 01 15:08:68
  TRACK 06 AUDIO
    TITLE "連立ビフォーアフター"
    PERFORMER "ショミ"
    INDEX 00 18:05:37
    INDEX 01 18:07:36
  TRACK 07 AUDIO
    TITLE "Soconite"
    PERFORMER "150P"
    INDEX 00 22:56:42
    INDEX 01 22:58:41
  TRACK 08 AUDIO
    TITLE "Acrylic"
    PERFORMER "kous"
    INDEX 00 28:06:26
    INDEX 01 28:08:25
  TRACK 09 AUDIO
    TITLE "ピースフルデイズ"
    PERFORMER "糞田舎P"
    INDEX 00 32:07:34
    INDEX 01 32:09:33
  TRACK 10 AUDIO
    TITLE "feel ! feel ! feel !"
    PERFORMER "スバル"
    INDEX 00 35:15:61
    INDEX 01 35:17:60
  TRACK 11 AUDIO
    TITLE "Bookmark"
    PERFORMER "ライブP"
    INDEX 00 39:21:68
    INDEX 01 39:23:67
  TRACK 12 AUDIO
    TITLE "ヨルに帰る花"
    PERFORMER "(仮)P"
    INDEX 00 44:02:62
    INDEX 01 44:04:61
  TRACK 13 AUDIO
    TITLE "Rain"
    PERFORMER "骨盤P"
    INDEX 00 48:50:57
    INDEX 01 48:52:56
  TRACK 14 AUDIO
    TITLE "サルビア"
    PERFORMER "フェイP"
    INDEX 00 53:10:13
    INDEX 01 53:12:12
离线烂翔
发帖
4007
『♭』
7433
『D』
2
『♥』
217
『∮』
17
『C』
206
只看该作者 地板  发表于: 2011-07-19
REM GENRE VOCALOID
REM DATE 2011
REM DISCID B10F720E
REM COMMENT ExactAudioCopy v0.99pb5
PERFORMER "Various Artists"
TITLE "Sequence / Disc-Future"
FILE "Various Artists - Sequence DISC 3 未来-future-.wav" WAVE
  TRACK 01 AUDIO
    TITLE "アイポート"
    PERFORMER "8#Prince (八王子P)"
    INDEX 01 00:00:00
  TRACK 02 AUDIO
    TITLE "Aether Dance"
    PERFORMER "すけっちP"
    INDEX 01 03:39:41
  TRACK 03 AUDIO
    TITLE "飛べない星"
    PERFORMER "KulfiQ"
    INDEX 01 08:59:49
  TRACK 04 AUDIO
    TITLE "カラ、カラ、カラ"
    PERFORMER "whoo"
    INDEX 01 13:59:64
  TRACK 05 AUDIO
    TITLE "テレビ恋話(れんわ)"
    PERFORMER "イトカワP"
    INDEX 01 17:28:11
  TRACK 06 AUDIO
    TITLE "Une etrangere"
    PERFORMER "かごめP"
    INDEX 01 22:36:05
  TRACK 07 AUDIO
    TITLE "S-mail"
    PERFORMER "仼P"
    INDEX 01 27:28:06
  TRACK 08 AUDIO
    TITLE "ハーシェルの大時計"
    PERFORMER "36g"
    INDEX 01 32:38:18
  TRACK 09 AUDIO
    TITLE "コンテモニア"
    PERFORMER "ぽわぽわP"
    INDEX 01 38:36:19
  TRACK 10 AUDIO
    TITLE "a song flying to you"
    PERFORMER "Nem"
    INDEX 01 44:29:12
  TRACK 11 AUDIO
    TITLE "百年の恋 - Endless Love -"
    PERFORMER "れるりり (当社比P)"
    INDEX 01 48:36:50
  TRACK 12 AUDIO
    TITLE "Ritual"
    PERFORMER "かどまつ"
    INDEX 01 53:25:04
  TRACK 13 AUDIO
    TITLE "Close to you"
    PERFORMER "nana (Sevencolors)"
    INDEX 01 58:01:07
  TRACK 14 AUDIO
    TITLE "タイム真心"
    PERFORMER "おにゅうP"
    INDEX 01 62:02:55
离线烂翔
发帖
4007
『♭』
7433
『D』
2
『♥』
217
『∮』
17
『C』
206
只看该作者 4坟墓  发表于: 2011-07-19
Re:[110612] [ボーマス16] [Various Artists - Sequence] (3wav+3cue)
离线baobi
发帖
36
『♭』
106
『D』
0
『♥』
6
『∮』
0
『C』
0
只看该作者 5 希腊  发表于: 2011-07-19
阵容真豪华
感谢
离线marv
发帖
50
『♭』
166
『D』
0
『♥』
6
『∮』
0
『C』
0
只看该作者 6天桥  发表于: 2011-07-19
老实说 我比较在意 「绘师42人」 ........
离线rorikon
发帖
5515
『♭』
519
『D』
17
『♥』
276
『∮』
124
『C』
45
只看该作者 7奶奶的大腿  发表于: 2011-07-19
于是我在回复前先猜了猜这四条链接名会是什么呢- -




意外的正经啊 喂....
[ 此帖被rorikon在2011-07-19 09:22重新编辑 ]
离线911
发帖
3852
『♭』
0
『D』
14
『♥』
87
『∮』
109
『C』
20
只看该作者 8蓝的尾巴  发表于: 2011-07-19
哦。於是我還在想網購里這張碟怎麼曲目都沒給出。
光一堆staff看= =
离线一指残
发帖
84
『♭』
326
『D』
0
『♥』
7
『∮』
6
『C』
2
只看该作者 ⑨十二号公路  发表于: 2011-07-19
非常感谢~
无损一直在等别人分流,不想搞MU盘的路过= =
1条评分
rorikon 〖B〗 +1 好久不见.. 2011-07-19
离线kayami
发帖
190
『♭』
3378
『D』
0
『♥』
3
『∮』
0
『C』
0
只看该作者 10楼 发表于: 2011-07-19
感觉到自己已经完全变成伸手党
离线satanvango
发帖
277
『♭』
18
『D』
0
『♥』
6
『∮』
0
『C』
0
只看该作者 11楼 发表于: 2011-07-19
哦哦真是华丽到爆的阵容啊
离线tsuna
发帖
223
『♭』
133
『D』
1
『♥』
7
『∮』
7
『C』
1
只看该作者 12楼 发表于: 2011-07-19
谢谢楼主分享资源吗 、
离线kei8864
发帖
768
『♭』
38
『D』
0
『♥』
28
『∮』
0
『C』
0
只看该作者 13楼 发表于: 2011-07-19
THANKS~~
好華麗的陣容....

:)
离线never海
发帖
67
『♭』
382
『D』
0
『♥』
0
『∮』
0
『C』
0
只看该作者 14楼 发表于: 2011-07-19
引用第9楼一指残于2011-07-19 09:45发表的  :
非常感谢~
无损一直在等别人分流,不想搞MU盘的路过= =

U姊你懒了
离线一指残
发帖
84
『♭』
326
『D』
0
『♥』
7
『∮』
6
『C』
2
只看该作者 15楼 发表于: 2011-07-19
引用第14楼never海于2011-07-19 12:40发表的  :
U姊你懒了

没办法啊,我这里下mu盘速度只有10k,完全没希望。。。
离线genesiscopy
发帖
137
『♭』
7
『D』
0
『♥』
6
『∮』
0
『C』
0
只看该作者 16楼 发表于: 2011-07-19

這么多p的合牒
怎么近期這么多大製作欸
之前又有kagamination的說...
算了
先感謝樓主
离线qduoe6943
发帖
64
『♭』
609
『D』
0
『♥』
0
『∮』
0
『C』
0
只看该作者 17楼 发表于: 2011-07-19
感謝分享~~~
离线saintq
发帖
956
『♭』
6206
『D』
62
『♥』
136
『∮』
306
『C』
50
只看该作者 18楼 发表于: 2011-07-19
VM16原来还有这么豪华的盘
离线948903
发帖
402
『♭』
0
『D』
0
『♥』
7
『∮』
0
『C』
0
只看该作者 19楼 发表于: 2011-07-19
4个包