论坛风格切换永遠の窄版
  • 210阅读
  • 8回复

[音樂][C81]Colorful Mic ~Side A~(WAV+LOG+CUE) [复制链接]

上一主题 下一主题
离线styliage
 
发帖
130
『♭』
455
『D』
6
『♥』
4
『∮』
36
『C』
6
只看楼主 倒序阅读 使用道具 楼主  发表于: 2017-10-28


曲目:
1 Hello, Worker
2 え? あぁ、そう。
3 うそつき
4 ジサツブシ
5 サクラノ前夜
6 ショットガン・ラヴァーズ
7 celluloid
8 タワー
9 帰り道
10 Mr. music

附上信息 (bangumi) :http://bangumi.tv/subject/35559

封面是网上找的。

此帖售价 4 『♭』,已有 1 人购买 [记录] [购买]
购买后,将显示帖子中所有出售内容。
若发现会员采用欺骗的方法获取财富,请立刻举报,我们会对会员处以2-N倍的罚金,严重者封掉ID!
此段为出售的内容,购买后显示
[ 此帖被styliage在2017-10-28 21:06重新编辑 ]
5条评分『♥』+1『C』+1『∮』+7『D』+1『♭』+1
rorikon 『♥』 +1 你是好人 2017-11-13
rorikon 『∮』 +7 (´・ω・`) 2017-11-13
rorikon 『D』 +1 2017-11-13
rorikon 『C』 +1 资源帖奖励 2017-10-28
rorikon 『♭』 +1 自抓证明发一下~ 2017-10-28
离线styliage
发帖
130
『♭』
455
『D』
6
『♥』
4
『∮』
36
『C』
6
只看该作者 沙发  发表于: 2017-10-28
Exact Audio Copy V1.0 beta 3 from 29. August 2011

EAC 抓取日志文件从2. 十月 2017, 23:25

- / Colorful Mic - sideA -

使用驱动器  :TSSTcorpDVD+-RW TS-L532B   Adapter: 0  ID: 0

读取模式      : 可靠Secure
使用精确流     : 是
清空音频缓存    : 是
使用 C2 指示器 : 是

读取偏移校正:               : 704
读取 Lead-In 和 Lead-Out : 否
用静音填充抓取中丢失偏移的采样       : 是
去除首尾静音块               : 否
在CRC 计算中使用了空样本       : 是
已用接口                  : Win NT 及 2000 本地 Win32 接口

所用输出模式: : 内部 WAV 函数
样本格式    : 44.100 Hz; 16 Bit; 立体声


已抓取 CD 的 TOC

     音轨 |    起始    |    长度    |  起始扇区  |  结束扇区  
    --------------------------------------------
      1 |  0:00.00 |  3:52.37 |      0 |  17436
      2 |  3:52.37 |  3:15.37 |  17437 |  32098
      3 |  7:07.74 |  3:32.37 |  32099 |  48035
      4 | 10:40.36 |  2:54.17 |  48036 |  61102
      5 | 13:34.53 |  5:53.15 |  61103 |  87592
      6 | 19:27.68 |  3:44.00 |  87593 | 104392
      7 | 23:11.68 |  3:56.15 | 104393 | 122107
      8 | 27:08.08 |  4:11.00 | 122108 | 140932
      9 | 31:19.08 |  6:32.00 | 140933 | 170332
     10 | 37:51.08 |  4:30.62 | 170333 | 190644


范围状态及错误

已选择范围

     文件名 C:\Users\styli\Desktop\Colorful Mic - sideA -\Colorful Mic - sideA -.wav

     峰值电平 99.9 %
     抓取速度 3.5 X
     范围质量 100.0 %
     复制 CRC C45511AF
     复制成功

没有错误发生


AccurateRip 摘要

音轨  1  在数据库中不存在
音轨  2  在数据库中不存在
音轨  3  在数据库中不存在
音轨  4  在数据库中不存在
音轨  5  在数据库中不存在
音轨  6  在数据库中不存在
音轨  7  在数据库中不存在
音轨  8  在数据库中不存在
音轨  9  在数据库中不存在
音轨 10  在数据库中不存在

没有任何音轨在 AccurateRip 数据库中有记录

状态报告结尾

---- CUETools DB Plugin V2.1.3

[CTDB TOCID: jkM5_EUFVxbKwWtmWS9pVnzGvWk-] found, Submit result: already submitted
[7939619c] (2/2) Accurately ripped


==== 记录校验日志 2AA0424E140235F7ADBFD9EC3CE5F1B8B9837F74C996210BEC98EB77D56B09F5 ====
离线rorikon
发帖
5774
『♭』
1637
『D』
17
『♥』
277
『∮』
124
『C』
45
只看该作者 板凳  发表于: 2017-10-28
标题[EAC自抓] 可以去掉  不需要在标题标明的噢  只要有log就行了
1条评分『♭』+1
styliage 『♭』 +1 好的(´・ω・`)顺便LOG就在上一层2333 2017-10-28
离线styliage
发帖
130
『♭』
455
『D』
6
『♥』
4
『∮』
36
『C』
6
只看该作者 地板  发表于: 2017-10-28
好的(´・ω・`)顺便LOG就在上一层2333
离线styliage
发帖
130
『♭』
455
『D』
6
『♥』
4
『∮』
36
『C』
6
只看该作者 4坟墓  发表于: 2017-11-01
回 2楼(rorikon) 的帖子
rorikon:标题[EAC自抓] 可以去掉  不需要在标题标明的噢  只要有log就行了 (2017-10-28 20:39) 

弱弱问一句...没有D嘛...
1条评分『♭』+1
rorikon 『♭』 +1 (´・ω・`)自抓证明发一下喔,在等你呢2333 2017-11-05
离线styliage
发帖
130
『♭』
455
『D』
6
『♥』
4
『∮』
36
『C』
6
只看该作者 5 希腊  发表于: 2017-11-05
回 2楼(rorikon) 的帖子
rorikon:标题[EAC自抓] 可以去掉  不需要在标题标明的噢  只要有log就行了 (2017-10-28 20:39) 

(´・_・`)LOG就在一楼呢23333
离线rorikon
发帖
5774
『♭』
1637
『D』
17
『♥』
277
『∮』
124
『C』
45
只看该作者 6天桥  发表于: 2017-11-06
回 styliage 的帖子
styliage:(´・_・`)LOG就在一楼呢23333 (2017-11-05 16:05) 

http://bbs.big-cd.com/read-htm-tid-14086.html

证明看这里
离线styliage
发帖
130
『♭』
455
『D』
6
『♥』
4
『∮』
36
『C』
6
只看该作者 7奶奶的大腿  发表于: 2017-11-06
回 6楼(rorikon) 的帖子
rorikon:http://bbs.big-cd.com/read-htm-tid-14086.html
证明看这里 (2017-11-06 02:59) 

原来如此,抱歉啦没看到我周末回去拍好了发上来
1条评分『♭』+1
rorikon 『♭』 +1 (´・ω・`)吼 2017-11-09
离线styliage
发帖
130
『♭』
455
『D』
6
『♥』
4
『∮』
36
『C』
6
只看该作者 8蓝的尾巴  发表于: 2017-11-11
回 6楼(rorikon) 的帖子