论坛风格切换永遠の窄版
  • 291阅读
  • 2回复

[自抓][120222] タイナカ彩智 - Flower Dance ( wav+cue ) [BD] [复制链接]

上一主题 下一主题
离线zsq1121
 
发帖
16
『♭』
129
『D』
0
『♥』
3
『∮』
0
『C』
3





又是古物啊哈哈_(:зゝ∠)_   不过外面是没有这个无损音源的~  因为我找了个遍~


Flower Dance简介:前作に続き自身のレーベル?tutu recordsからのリリースとなるタイナカ彩智のアルバム第2弾。 <br> <br>広沢タダシ (プロデュース)、コトリンゴ (ピアノ)、SINSKE (マリンバ)など、豪華アーティスト陣とのコラボレーションにより生み出された、新しく上質なPOPS。 <br> <br>「命は踊るの 一瞬の永遠に変えて」トゥーシューズで登場する場面から始めるこの作品は、物語の中を踊り、歌いながら、本当の美しさを探す旅。 <br> <br>サウンドも歌詞も遊び心満載、ここにタイナカ彩智ワールド完成。


专辑曲目: 

1. アントレ
2. Flower Dance
3. 大好きな彼は宇宙人
4. Joyful
5. 炭酸が飲みたい
6. 魚
7. まぁいっか
8. のらねこ天国
9. ロンリーウーマン
10. 花火 (Album ver)
11. ウェディングドレス
12. イッシンドウタイ
13. アダージョ



此帖售价 10 『♭』,已有 3 人购买 [记录] [购买]
购买后,将显示帖子中所有出售内容。
若发现会员采用欺骗的方法获取财富,请立刻举报,我们会对会员处以2-N倍的罚金,严重者封掉ID!
此段为出售的内容,购买后显示






禁止转载





Exact Audio Copy V1.0 beta 3 from 29. August 2011

EAC 抓取日志文件从10. 五月 2017, 12:31

タイナカ彩智 / Flower Dance

使用驱动器  :ASUS    SDRW-08D2S-U   Adapter: 0  ID: 0

读取模式      : 可靠Secure
使用精确流     : 是
清空音频缓存    : 是
使用 C2 指示器 : 否

读取偏移校正:               : 6
读取 Lead-In 和 Lead-Out : 否
用静音填充抓取中丢失偏移的采样       : 是
去除首尾静音块               : 否
在CRC 计算中使用了空样本       : 是
已用接口                  : Win NT 及 2000 本地 Win32 接口

所用输出模式: : 内部 WAV 函数
样本格式    : 44.100 Hz; 16 Bit; 立体声


已抓取 CD 的 TOC

     音轨 |    起始    |    长度    |  起始扇区  |  结束扇区  
    --------------------------------------------
      1 |  0:00.00 |  0:13.68 |      0 |   1042
      2 |  0:13.68 |  6:38.18 |   1043 |  30910
      3 |  6:52.11 |  3:46.28 |  30911 |  47888
      4 | 10:38.39 |  2:30.33 |  47889 |  59171
      5 | 13:08.72 |  3:11.33 |  59172 |  73529
      6 | 16:20.30 |  3:54.00 |  73530 |  91079
      7 | 20:14.30 |  4:00.30 |  91080 | 109109
      8 | 24:14.60 |  2:50.10 | 109110 | 121869
      9 | 27:04.70 |  3:25.59 | 121870 | 137303
     10 | 30:30.54 |  3:49.69 | 137304 | 154547
     11 | 34:20.48 |  4:49.67 | 154548 | 176289
     12 | 39:10.40 |  3:59.47 | 176290 | 194261
     13 | 43:10.12 |  3:21.53 | 194262 | 209389
     14 | 49:03.65 | 16:43.46 | 220790 | 296060


范围状态及错误

已选择范围

     文件名 E:\我的文档\Desktop\Flower Dance\タイナカ彩智 - Flower Dance.wav

     峰值电平 100.0 %
     抓取速度 4.5 X
     范围质量 100.0 %
     复制 CRC F3572FEE
     复制成功

没有错误发生


AccurateRip 摘要

音轨  1  精确地校准抓取  2)  [ED209C5F]  (AR v2)
音轨  2  精确地校准抓取  2)  [2CACA95A]  (AR v2)
音轨  3  精确地校准抓取  2)  [297ED05D]  (AR v2)
音轨  4  精确地校准抓取  2)  [64DFDF5B]  (AR v2)
音轨  5  精确地校准抓取  2)  [9C9E791C]  (AR v2)
音轨  6  精确地校准抓取  2)  [02DC53E1]  (AR v2)
音轨  7  精确地校准抓取  2)  [AEAE3C94]  (AR v2)
音轨  8  精确地校准抓取  2)  [6C95C17E]  (AR v2)
音轨  9  精确地校准抓取  2)  [5D9AA036]  (AR v2)
音轨 10  精确地校准抓取  2)  [8F43A4B1]  (AR v2)
音轨 11  精确地校准抓取  2)  [5918F865]  (AR v2)
音轨 12  精确地校准抓取  2)  [00312E06]  (AR v2)
音轨 13  精确地校准抓取  2)  [55391726]  (AR v2)

所有音轨精确校准抓取

状态报告结尾



[ 此帖被zsq1121在2017-05-10 13:23重新编辑 ]
3条评分『♥』+1『C』+1『♭』+7
rorikon 『♭』 +7 投币支持 05-11
rorikon 『♥』 +1 (´・ω・`) 05-11
rorikon 『C』 +1 资源帖奖励 05-11
离线rorikon
发帖
5715
『♭』
3041
『D』
17
『♥』
277
『∮』
124
『C』
45
只看该作者 沙发  发表于: 05-11
欢迎发布  

自抓证明请按此贴要求修改一下哦,以便评分

http://bbs.big-cd.com/read-htm-tid-14086.html
离线binway666
发帖
6
『♭』
17
『D』
0
『♥』
0
『∮』
0
『C』
0
只看该作者 板凳  发表于: 11-01
本部分内容设定了加密,查看此帖需要『♭』:700  沒注意到......  第一次購買有點搞不清狀況
[ 此帖被binway666在2017-11-01 13:25重新编辑 ]