论坛风格切换永遠の窄版
  • 167阅读
  • 1回复

[自抓][150128] fumika - POWER OF VOICE ( wav+cue ) [BD] [复制链接]

上一主题 下一主题
离线zsq1121
 
发帖
15
『♭』
119
『D』
0
『♥』
3
『∮』
0
『C』
3





这碟貌似外面没人发无损或者没档了?


Power Of Voice简介:“ガールズ ポップの歌姫”こと、fumikaのセカンド アルバム。マイナビウエディングのCMソング「Endless Road」、フジテレビ系昼ドラマ『碧の海~LONG SUMMER~』主題歌「消せない約束」他を収録。プロデューサー軍団agehaspringsがトータル プロデュースを手掛けた、良質な音楽性と男女が涙する奇跡の歌声に魅了される作品。


登录情报
CD (2015/1/28)
ディスク枚数: 1
レーベル: よしもとアール・アンド・シー
ASIN: B00PTSJWOS
EAN: 4571487555759
Amazon ベストセラー商品ランキング: 音楽 - 3,080位


曲目リスト
1. prologue
2. ドアの向こうへ
3. 消せない约束
4. Moment
5. Calendar Girl
6. Feel It
7. 10000回のありがとう
8. 泣きたい仆ら
9. Little Happiness
10. Endless Road
11. epilogue
12. たいせつな光 ~ pf ver. ~





此帖售价 10 『♭』,已有 2 人购买 [记录] [购买]
购买后,将显示帖子中所有出售内容。
若发现会员采用欺骗的方法获取财富,请立刻举报,我们会对会员处以2-N倍的罚金,严重者封掉ID!
此段为出售的内容,购买后显示






禁止转载




Exact Audio Copy V1.0 beta 3 from 29. August 2011

EAC 抓取日志文件从10. 五月 2017, 12:01

fumika / POWER OF VOICE

使用驱动器  :ASUS    SDRW-08D2S-U   Adapter: 0  ID: 0

读取模式      : 可靠Secure
使用精确流     : 是
清空音频缓存    : 是
使用 C2 指示器 : 否

组合读写偏移校正:             : 0
读取 Lead-In 和 Lead-Out : 否
用静音填充抓取中丢失偏移的采样       : 是
去除首尾静音块               : 否
在CRC 计算中使用了空样本       : 是
已用接口                  : Win NT 及 2000 本地 Win32 接口

所用输出模式: : 内部 WAV 函数
样本格式    : 44.100 Hz; 16 Bit; 立体声


已抓取 CD 的 TOC

     音轨 |    起始    |    长度    |  起始扇区  |  结束扇区  
    --------------------------------------------
      1 |  0:00.00 |  0:38.64 |      0 |   2913
      2 |  0:38.64 |  5:23.68 |   2914 |  27206
      3 |  6:02.57 |  5:01.47 |  27207 |  49828
      4 | 11:04.29 |  4:38.04 |  49829 |  70682
      5 | 15:42.33 |  4:35.04 |  70683 |  91311
      6 | 20:17.37 |  3:45.21 |  91312 | 108207
      7 | 24:02.58 |  4:36.30 | 108208 | 128937
      8 | 28:39.13 |  4:43.60 | 128938 | 150222
      9 | 33:22.73 |  4:58.11 | 150223 | 172583
     10 | 38:21.09 |  4:57.51 | 172584 | 194909
     11 | 43:18.60 |  0:36.27 | 194910 | 197636
     12 | 43:55.12 |  5:50.63 | 197637 | 223949


范围状态及错误

已选择范围

     文件名 E:\我的文档\Desktop\POWER OF VOICE\fumika - POWER OF VOICE.wav

     峰值电平 99.9 %
     抓取速度 1.8 X
     范围质量 99.9 %
     复制 CRC 640150A1
     复制成功

没有错误发生

状态报告结尾
[ 此帖被zsq1121在2017-05-10 12:53重新编辑 ]
3条评分『♥』+1『C』+1『♭』+5
rorikon 『♥』 +1 欢迎入驻 05-11
rorikon 『♭』 +5 投币支持 05-11
rorikon 『C』 +1 资源帖奖励 05-11
离线shiraishisai
发帖
9
『♭』
39
『D』
0
『♥』
0
『∮』
0
『C』
0
只看该作者 沙发  发表于: 06-29
找到很多都是256K AAC,终于找到无损!