论坛风格切换永遠の窄版
  • 316阅读
  • 4回复

[自抓][120516] FLiP - XX emotion (wav + cue) [BD] [复制链接]

上一主题 下一主题
离线zsq1121
 
发帖
16
『♭』
129
『D』
0
『♥』
3
『∮』
0
『C』
3




一张老物了,翻箱子看到的就上传了
第四首是银魂op
这个乐队主唱声音听起来挺有特点的,个人很上瘾

テレビ东京系アニメーション『银魂』1月クールのオープニングテーマとして大きな话题を呼んでいる「ワンダーランド」を含む全11~13曲収录予定のFLiPのセカンド・フルアルバムです!

TRACKLIST :

1. CHERRY BOMB
2. ワルサー
3. エミモア
4. ワンダーランド
5. Everything is alright
6. YUKEMURI DJ
7. 最后の晩餐
8. Shut Up, Men!
9. ホシイモノハ
10. でも maybe
11. 今夜月で会いましょう
12. ふつつか少女
13. GHOST BUSTER


此帖售价 10 『♭』,已有 0 人购买 [记录] [购买]
购买后,将显示帖子中所有出售内容。
若发现会员采用欺骗的方法获取财富,请立刻举报,我们会对会员处以2-N倍的罚金,严重者封掉ID!
此段为出售的内容,购买后显示



禁止转载

Exact Audio Copy V1.0 beta 3 from 29. August 2011
EAC 抓取日志文件从8. 五月 2017, 23:48
FLiP / XX emotion
使用驱动器  :ASUS    SDRW-08D2S-U   Adapter: 0  ID: 0
读取模式      : 可靠Secure
使用精确流     : 是
清空音频缓存    : 是
使用 C2 指示器 : 否
组合读写偏移校正:             : 0
读取 Lead-In 和 Lead-Out : 否
用静音填充抓取中丢失偏移的采样       : 是
去除首尾静音块               : 否
在CRC 计算中使用了空样本       : 是
已用接口                  : Win NT 及 2000 本地 Win32 接口
所用输出模式: : 内部 WAV 函数
样本格式    : 44.100 Hz; 16 Bit; 立体声

已抓取 CD 的 TOC
     音轨 |    起始    |    长度    |  起始扇区  |  结束扇区  
    --------------------------------------------
      1 |  0:00.00 |  3:38.25 |      0 |  16374
      2 |  3:38.25 |  3:33.40 |  16375 |  32389
      3 |  7:11.65 |  3:43.42 |  32390 |  49156
      4 | 10:55.32 |  3:47.18 |  49157 |  66199
      5 | 14:42.50 |  4:05.63 |  66200 |  84637
      6 | 18:48.38 |  3:36.22 |  84638 | 100859
      7 | 22:24.60 |  3:55.20 | 100860 | 118504
      8 | 26:20.05 |  3:49.55 | 118505 | 135734
      9 | 30:09.60 |  4:05.43 | 135735 | 154152
     10 | 34:15.28 |  3:43.47 | 154153 | 170924
     11 | 37:59.00 |  3:45.33 | 170925 | 187832
     12 | 41:44.33 |  3:50.60 | 187833 | 205142
     13 | 45:35.18 |  3:35.55 | 205143 | 221322

范围状态及错误
已选择范围
     文件名 E:\我的文档\Desktop\新建文件夹\FLiP - XX emotion.wav
     峰值电平 98.8 %
     抓取速度 4.4 X
     范围质量 100.0 %
     复制 CRC 2D785A39
     复制成功
没有错误发生
状态报告结尾















[ 此帖被zsq1121在2017-05-09 13:17重新编辑 ]
3条评分『♥』+1『C』+1『♭』+7
rorikon 『♭』 +7 投币支持 05-10
rorikon 『♥』 +1 (´・ω・`) 05-10
rorikon 『C』 +1 资源帖奖励 05-10
离线rorikon
发帖
5716
『♭』
3016
『D』
17
『♥』
277
『∮』
124
『C』
45
只看该作者 沙发  发表于: 05-09
图片失效了,载点也无   请修改
离线zsq1121
发帖
16
『♭』
129
『D』
0
『♥』
3
『∮』
0
『C』
3
只看该作者 板凳  发表于: 05-09
图片我这一直传不出来。。。
链接的话只是给了度娘的结尾和口令。。_(:зゝ∠)_ 就在抓取日志上面点
离线zsq1121
发帖
16
『♭』
129
『D』
0
『♥』
3
『∮』
0
『C』
3
只看该作者 地板  发表于: 05-09
回 1楼(rorikon) 的帖子
图片我这传不了_(:зゝ∠)_  换了两个浏览器都不行
离线rorikon
发帖
5716
『♭』
3016
『D』
17
『♥』
277
『∮』
124
『C』
45
只看该作者 4坟墓  发表于: 05-10
回 zsq1121 的帖子
zsq1121:图片我这传不了_(:зゝ∠)_  换了两个浏览器都不行
 (2017-05-09 07:26) 

已经看到了,辛苦啦

http://bbs.big-cd.com/read.php?tid=14093&ds=1#134710

自抓证明看一下这里哦,以便评分奖励