论坛风格切换永遠の窄版
  • 263阅读
  • 2回复

[音樂][自抓][C91][暁records] GIRLS ALBUM -ONE-(wav+cue) [复制链接]

上一主题 下一主题
离线空導
 
发帖
42
『♭』
534
『D』
5
『♥』
6
『∮』
25
『C』
7


試聽 https://soundcloud.com/dawn-records/sets/girls-album-one

百度/MEGA 限制3C
此帖售价 30 『♭』,已有 2 人购买 [记录] [购买]
购买后,将显示帖子中所有出售内容。
若发现会员采用欺骗的方法获取财富,请立刻举报,我们会对会员处以2-N倍的罚金,严重者封掉ID!
此段为出售的内容,购买后显示



log
Exact Audio Copy V1.3 from 2. September 2016

EAC 抓取日誌文件從25. 二月 2017, 1:58

暁Records / GIRLS ALBUM -ONE-

使用驅動器  :HL-DT-STDVDRAM GH24NSB0   Adapter: 1  ID: 0

讀取模式      : 可靠Secure
使用精確流     : 是
清空音頻緩存    : 否
使用 C2 指示器 : 否

組合讀寫偏移校正:             : 0
讀取 Lead-In 和 Lead-Out : 否
用靜音填充抓取中丟失偏移的採樣       : 是
去除首尾靜音塊               : 否
在CRC 計算中使用了空樣本       : 是
已用接口                  : Win NT 及 2000 本地 Win32 接口

所用輸出模式: : 內部 WAV 函數
樣本格式    : 44.100 Hz; 16 Bit; 立體聲


已抓取 CD 的 TOC

     音軌 |    起始    |    長度    |  起始扇區  |  結束扇區  
    --------------------------------------------
      1 |  0:00.00 |  3:56.46 |      0 |  17745
      2 |  3:56.46 |  4:10.03 |  17746 |  36498
      3 |  8:06.49 |  4:35.57 |  36499 |  57180
      4 | 12:42.31 |  3:58.34 |  57181 |  75064
      5 | 16:40.65 |  4:38.66 |  75065 |  95980
      6 | 21:19.56 |  3:58.18 |  95981 | 113848
      7 | 25:17.74 |  4:36.13 | 113849 | 134561
      8 | 29:54.12 |  4:17.15 | 134562 | 153851


範圍狀態及錯誤

已選擇範圍

     文件名 C:\Users\AinodehnA\Desktop\GIRLS ALBUM -ONE\暁Records - GIRLS ALBUM -ONE-.wav

     峰值電平 100.0 %
     抓取速度 2.4 X
     範圍質量 100.0 %
     複製 CRC 991BAF14
     複製成功

沒有錯誤發生

狀態報告結尾

---- CUETools DB Plugin V2.1.6

[CTDB TOCID: 0ViTfrWxWtja6kdTCGAvriSWWoE-] found
Submit result: already submitted
Track | CTDB Status
  1   | (17/17) Accurately ripped
  2   | (17/17) Accurately ripped
  3   | (17/17) Accurately ripped
  4   | (17/17) Accurately ripped
  5   | (17/17) Accurately ripped
  6   | (17/17) Accurately ripped
  7   | (17/17) Accurately ripped
  8   | (17/17) Accurately ripped

5条评分『♥』+1『C』+1『∮』+6『D』+1『♭』+7
rorikon 『♭』 +7 投币支持 02-27
rorikon 『D』 +1 02-27
rorikon 『♥』 +1 (´・ω・`) 02-27
rorikon 『∮』 +6 又帅又强 02-27
rorikon 『C』 +1 资源帖奖励 02-27
离线starcat
发帖
2210
『♭』
14503
『D』
0
『♥』
12
『∮』
0
『C』
0
只看该作者 沙发  发表于: 02-26
限制1Wb不行吗
1条评分『♭』-1
rorikon 『♭』 -1 不要说奇怪的话 02-27
离线gusha
发帖
25
『♭』
213
『D』
0
『♥』
0
『∮』
0
『C』
0
只看该作者 板凳  发表于: 07-11
我看着它
谢谢ー