论坛风格切换永遠の窄版
  • 216阅读
  • 0回复

[自抓][100330]IM停電少女と羽蟲のオーケストラ マキシシングル“蛍月夜” 竹内顺子(wav+cue) [复制链接]

上一主题 下一主题
离线表酱紫咧
 
发帖
38
『♭』
111
『D』
7
『♥』
7
『∮』
37
『C』
7
只看楼主 正序阅读 使用道具 楼主  发表于: 2016-11-27



停電少女と羽蟲のオーケストラ マキシシングル“蛍月夜”
  
  • CD (March 30, 2010)
  • Label: IM
  • ASIN: B003OPE0WW
  • JAN: 4580234614229


【収録曲】
1.蛍月夜
2.蛍月夜 - Karaoke ver. - instrumental
3.Instrumental ver. - instrumental
4.停电いろは诗 灰羽.ネム/段

Log

Exact Audio Copy V1.3 from 2. September 2016

EAC 抓取日志文件从27. 十一月 2016, 0:43

竹内顺子 / 停電少女と羽蟲のオーケストラ マキシシングル“蛍月夜”

使用驱动器  :SlimtypeDVD A  DA8A5SH-L   Adapter: 1  ID: 0

读取模式      : 可靠Secure
使用精确流     : 是
清空音频缓存    : 是
使用 C2 指示器 : 否

组合读写偏移校正:             : 0
读取 Lead-In 和 Lead-Out : 否
用静音填充抓取中丢失偏移的采样       : 是
去除首尾静音块               : 否
在CRC 计算中使用了空样本       : 是
已用接口                  : Win NT 及 2000 本地 Win32 接口

所用输出模式: : 内部 WAV 函数
样本格式    : 44.100 Hz; 16 Bit; 立体声


已抓取 CD 的 TOC

     音轨 |    起始    |    长度    |  起始扇区  |  结束扇区  
    --------------------------------------------
      1 |  0:00.00 |  4:42.70 |      0 |  21219
      2 |  4:42.70 |  4:41.48 |  21220 |  42342
      3 |  9:24.43 |  4:42.49 |  42343 |  63541
      4 | 14:07.17 | 15:17.39 |  63542 | 132355


范围状态及错误

已选择范围

     文件名 C:\Users\Farfan\Desktop\[100330]IM停電少女と羽蟲のオーケストラ マキシシングル“蛍月夜” 竹内顺子(wav+cue)\竹内顺子 - 停電少女と羽蟲のオーケストラ マキシシングル“蛍月夜”.wav

     峰值电平 99.7 %
     抓取速度 4.0 X
     范围质量 100.0 %
     复制 CRC 4E051234
     复制成功

没有错误发生

状态报告结尾

------------------------------------------------------------

Exact Audio Copy V1.3 from 2. September 2016

EAC 抓取日志文件从27. 十一月 2016, 0:43

竹内顺子 / 停電少女と羽蟲のオーケストラ マキシシングル“蛍月夜”

使用驱动器  :SlimtypeDVD A  DA8A5SH-L   Adapter: 1  ID: 0

读取模式      : 可靠Secure
使用精确流     : 是
清空音频缓存    : 是
使用 C2 指示器 : 否

组合读写偏移校正:             : 0
读取 Lead-In 和 Lead-Out : 否
用静音填充抓取中丢失偏移的采样       : 是
去除首尾静音块               : 否
在CRC 计算中使用了空样本       : 是
已用接口                  : Win NT 及 2000 本地 Win32 接口

所用输出模式: : 内部 WAV 函数
样本格式    : 44.100 Hz; 16 Bit; 立体声


已抓取 CD 的 TOC

     音轨 |    起始    |    长度    |  起始扇区  |  结束扇区  
    --------------------------------------------
      1 |  0:00.00 |  4:42.70 |      0 |  21219
      2 |  4:42.70 |  4:41.48 |  21220 |  42342
      3 |  9:24.43 |  4:42.49 |  42343 |  63541
      4 | 14:07.17 | 15:17.39 |  63542 | 132355


范围状态及错误

已选择范围

     文件名 C:\Users\Farfan\Desktop\[100330]IM停電少女と羽蟲のオーケストラ マキシシングル“蛍月夜” 竹内顺子(wav+cue)\竹内顺子 - 停電少女と羽蟲のオーケストラ マキシシングル“蛍月夜”.wav

     峰值电平 99.7 %
     抓取速度 4.0 X
     范围质量 100.0 %
     复制 CRC 4E051234
     复制成功

没有错误发生

状态报告结尾

自抓证明



百度网盘:
本部分内容设定了隐藏,需要回复后才能看到

提取码:
此帖售价 1 『♭』,已有 0 人购买 [记录] [购买]
购买后,将显示帖子中所有出售内容。
若发现会员采用欺骗的方法获取财富,请立刻举报,我们会对会员处以2-N倍的罚金,严重者封掉ID!
此段为出售的内容,购买后显示

本主题包含附件,请 登录 后查看, 或者 注册 成为会员
5条评分『♥』+1『C』+1『∮』+7『D』+1『♭』+7
rorikon 『♥』 +1 2333这拍照风格让我想起了某人 2016-11-28
rorikon 『∮』 +7 又帅又强 2016-11-28
rorikon 『♭』 +7 投币支持 2016-11-28
rorikon 『D』 +1 2016-11-28
rorikon 『C』 +1 资源帖奖励 2016-11-28