论坛风格切换永遠の窄版
  • 467阅读
  • 14回复

[自抓][100207]Celo Project TRILL 歌ってみた(wav+cue) [复制链接]

上一主题 下一主题
离线表酱紫咧
 
发帖
38
『♭』
115
『D』
7
『♥』
7
『∮』
37
『C』
7
只看楼主 倒序阅读 使用道具 楼主  发表于: 2016-11-27


   TRILL

  • CD (February 7, 2010)
  • Number of Discs: 1
  • Label: Celo Project
  • ASIN: B003UF17JK
  • JAN: 4571342630027

  • 【収録曲】

  •      1. 番凩(作詞作曲 仕事してP 歌 clewotaクリヲタ)


      2. うしろまえワルツ(作詞作曲 PENGUINS PROJECT 歌 ななひら)


      3. 紅一葉(作詞作曲 WhiteFlame 歌 hana コーラス Nimo)


      4. わがまま(作詞作曲 40mP 歌 セリユ)


      5. 落葉とワルツを(作詞作曲 ichi 歌 けったろ)


      6. 熱の記憶(作詞 chii 作曲 テラ小室P 歌 ヒトリヅカタナコ)


      7. ナトリウム(作詞作曲 におP 歌 はるよ)


      8. Message track(編曲 M@SATOSHI 声 clear ヲタみん ななひら hana セリユ けったろ テラ小室P はるよ)


      9. 白の季節(作詞作曲 ゆうゆ 歌 Nimo)


      10. Waiting for you(作詞 Mellow 作曲 M@SATOSHI 歌 茶畑∴)


      11. 白雪 ~sirayuki~(作詞作曲 WhiteFlame 歌 とのん)


      12. Powder Snow(作詞作曲 SAM 歌 あう)


      13. winterSONG(作詞 rlboro&まーる 作曲 rlboro 歌 non)


      14. 雪の精霊たち(作詞作曲 虹原ぺぺろん 歌 ゆきまめ ひな una)


      15. Message track(編曲 M@SATOSHI 声 Nimo 茶畑∴ とのん あう non ゆきまめ ひな una 佳仙)


      16. 雪峰 ~yukimine~(作詞作曲 彩音 ~xion~ 歌 佳仙)



  • Log

  • Exact Audio Copy V1.3 from 2. September 2016

    EAC 抓取日志文件从14. 十一月 2016, 2:44

    歌ってみた / TRILL

    使用驱动器  :SlimtypeDVD A  DA8A5SH-L   Adapter: 1  ID: 0

    读取模式      : 可靠Secure使用精确流     : 是
    清空音频缓存    : 是使用 C2 指示器 : 否

    组合读写偏移校正:             : 0
    读取 Lead-In 和 Lead-Out : 否用静音填充抓取中丢失偏移的采样       : 是
    去除首尾静音块               : 否 在CRC 计算中使用了空样本       : 是
    已用接口                  : Win NT 及 2000 本地 Win32 接口

    所用输出模式: : 内部 WAV 函数样本格式    : 44.100 Hz; 16 Bit; 立体声



    已抓取 CD 的 TOC

         音轨 |    起始    |    长度    |  起始扇区  |  结束扇区      --------------------------------------------
          1 |  0:00.00 |  3:43.59 |      0 |  16783       2 |  3:43.59 |  4:32.10 |  16784 |  37193
          3 |  8:15.69 |  4:09.07 |  37194 |  55875       4 | 12:25.01 |  4:21.63 |  55876 |  75513
          5 | 16:46.64 |  4:13.58 |  75514 |  94546       6 | 21:00.47 |  5:32.04 |  94547 | 119450
          7 | 26:32.51 |  3:54.18 | 119451 | 137018       8 | 30:26.69 |  3:36.56 | 137019 | 153274
          9 | 34:03.50 |  3:54.59 | 153275 | 170883      10 | 37:58.34 |  6:08.68 | 170884 | 198551
         11 | 44:07.27 |  4:42.20 | 198552 | 219721      12 | 48:49.47 |  5:05.35 | 219722 | 242631
         13 | 53:55.07 |  4:19.64 | 242632 | 262120      14 | 58:14.71 |  5:58.41 | 262121 | 289011
         15 | 64:13.37 |  4:00.08 | 289012 | 307019      16 | 68:13.45 |  4:23.54 | 307020 | 326798



    范围状态及错误

    已选择范围

         文件名 C:\Users\Farfan\Desktop\新建文件夹\歌ってみた - TRILL.wav

         峰值电平 98.3 %     抓取速度 4.9 X
         范围质量 100.0 %     复制 CRC F0E2782B
         复制成功

    没有错误发生

    状态报告结尾


  • 自抓证明

  • 百度网盘:
    本部分内容设定了隐藏,需要回复后才能看到
  • 提取码:
    此帖售价 1 『♭』,已有 13 人购买 [记录] [购买]
    购买后,将显示帖子中所有出售内容。
    若发现会员采用欺骗的方法获取财富,请立刻举报,我们会对会员处以2-N倍的罚金,严重者封掉ID!
    此段为出售的内容,购买后显示

本主题包含附件,请 登录 后查看, 或者 注册 成为会员
7条评分『♥』+1『C』+1『∮』+7『D』+1『♭』+9
galunter 『♭』 +1 以大腿的名义 02-07
霜待雨月 『♭』 +1 以大腿的名义 2016-12-07
rorikon 『♭』 +7 投币支持 2016-11-28
rorikon 『♥』 +1 你是好人 2016-11-28
rorikon 『∮』 +7 (´・ω・`) 2016-11-28
rorikon 『D』 +1 2016-11-28
rorikon 『C』 +1 资源帖奖励 2016-11-28
离线starcat
发帖
2210
『♭』
14503
『D』
0
『♥』
12
『∮』
0
『C』
0
只看该作者 沙发  发表于: 2016-11-27
都是些什么歌捏?
离线ornitier
发帖
1513
『♭』
17459
『D』
0
『♥』
15
『∮』
0
『C』
0
只看该作者 板凳  发表于: 2016-11-30
这个季节听这张很应景
离线kjk6182
发帖
39
『♭』
100
『D』
0
『♥』
0
『∮』
0
『C』
0
只看该作者 地板  发表于: 2016-12-05
Thanks for sharing :D~
离线sonicspeed
发帖
1725
『♭』
239
『D』
44
『♥』
126
『∮』
237
『C』
39
只看该作者 4坟墓  发表于: 2016-12-05
难不成是重新编曲的?唱见盘?
离线霜待雨月
发帖
10
『♭』
1881
『D』
0
『♥』
0
『∮』
0
『C』
0
只看该作者 5 希腊  发表于: 2016-12-07
找这张盘找了好久啊,感谢楼主了,顺便推一下盘里《雪の精霊たち 》这首。
离线scpsscps1
发帖
1164
『♭』
16364
『D』
0
『♥』
5
『∮』
0
『C』
0
只看该作者 6天桥  发表于: 2016-12-19
都有人推薦了。。 怎不買來聽就說不過去了
在线hskstjwdzc
发帖
3
『♭』
2926
『D』
0
『♥』
0
『∮』
0
『C』
0
只看该作者 7奶奶的大腿  发表于: 2016-12-24
找这张专辑找了非常长的时间,非常感谢楼主的发布!
离线galunter
发帖
112
『♭』
6644
『D』
0
『♥』
2
『∮』
0
『C』
0
只看该作者 8蓝的尾巴  发表于: 02-07
离线czfdlove
发帖
9
『♭』
1094
『D』
1
『♥』
1
『∮』
6
『C』
1
只看该作者 ⑨十二号公路  发表于: 02-09
非常感谢楼主的发布!
离线lackluster
发帖
28
『♭』
322
『D』
0
『♥』
0
『∮』
0
『C』
0
只看该作者 10楼 发表于: 03-16
非常非常感谢楼主的分享!!!!!!!!!
离线雪竹霜月
发帖
3
『♭』
12
『D』
0
『♥』
0
『∮』
0
『C』
0
只看该作者 11楼 发表于: 06-06
这张专辑无损档真的很难找啊!超喜欢里面的好几首歌!感谢!!
离线押水菜子
发帖
2
『♭』
2
『D』
0
『♥』
0
『∮』
0
『C』
0
只看该作者 12楼 发表于: 10-24
非常非常感谢楼主的分享!!!!!!!!!
离线xin82122
发帖
34
『♭』
107
『D』
0
『♥』
0
『∮』
0
『C』
0
只看该作者 13楼 发表于: 12-06
非常非常感谢楼主的分享
离线xanadu_zen
发帖
2
『♭』
22
『D』
0
『♥』
0
『∮』
0
『C』
0
只看该作者 14楼 发表于: 12-13
感谢楼主的分享~这张CD现在可难找了