论坛风格切换永遠の窄版
  • 399阅读
  • 2回复

[自抓][161011]インディーズレーベル Mili Miracle Milk (限定プレミアムパッケージ盤) Limited Edition(wav+cue) [复制链接]

上一主题 下一主题
离线表酱紫咧
 
发帖
38
『♭』
115
『D』
7
『♥』
7
『∮』
37
『C』
7
只看楼主 倒序阅读 使用道具 楼主  发表于: 2016-11-12


Miracle Milk (限定プレミアムパッケージ盤) Limited Edition




  • CD (October 12, 2016)
  • Number of Discs: 1
  • Format: Limited Edition
  • Label: インディーズレーベル
  • ASIN: B01JY7A6NA
  • JAN: 4560452130435
  •     
  • 【収録曲】全18曲
    01.Red Dahlia
    02.Ga1ahad and Scientific Witchery
    03.RTRT
    04.Unidentified Flavourful Object
    05.Meatball Submarine
    06.Vulnerability
    07.与我共鸣-NENTEN-
    08.Bathtub Mermaid
    09.Cerebrite
    10.Space Colony
    11.world.execute(me);
    12.Utopiosphere -Platonism-
    13.Painful Death for the Lactose Intolerant
    14.YUBIKIRI-GENMAN -special edit-
    15.Sl0t
    16.Past the Stargazing Season
    17.Colorful
    18.Komm, susser Tod

  •     

    自购证明

  •     
    Log
  • Exact Audio Copy V1.3 from 2. September 2016

  • EAC 抓取日志文件从12. 十一月 2016, 18:32

  • Mili / Miracle Milk

  • 使用驱动器  :SlimtypeDVD A  DA8A5SH-L   Adapter: 1  ID: 0

  • 读取模式      : 可靠Secure
  • 使用精确流     : 是
  • 清空音频缓存    : 是
  • 使用 C2 指示器 : 否

  • 组合读写偏移校正:             : 0
  • 读取 Lead-In 和 Lead-Out : 否
  • 用静音填充抓取中丢失偏移的采样       : 是
  • 去除首尾静音块               : 否
  • 在CRC 计算中使用了空样本       : 是
  • 已用接口                  : Win NT 及 2000 本地 Win32 接口

  • 所用输出模式: : 内部 WAV 函数
  • 样本格式    : 44.100 Hz; 16 Bit; 立体声


  • 已抓取 CD 的 TOC

  •      音轨 |    起始    |    长度    |  起始扇区  |  结束扇区  
  •     --------------------------------------------
  •       1 |  0:00.00 |  2:17.01 |      0 |  10275
  •       2 |  2:17.01 |  3:41.28 |  10276 |  26878
  •       3 |  5:58.29 |  3:35.02 |  26879 |  43005
  •       4 |  9:33.31 |  4:04.17 |  43006 |  61322
  •       5 | 13:37.48 |  3:11.47 |  61323 |  75694
  •       6 | 16:49.20 |  2:05.43 |  75695 |  85112
  •       7 | 18:54.63 |  3:09.53 |  85113 |  99340
  •       8 | 22:04.41 |  3:44.02 |  99341 | 116142
  •       9 | 25:48.43 |  2:42.36 | 116143 | 128328
  •      10 | 28:31.04 |  3:13.71 | 128329 | 142874
  •      11 | 31:45.00 |  3:31.68 | 142875 | 158767
  •      12 | 35:16.68 |  2:11.16 | 158768 | 168608
  •      13 | 37:28.09 |  2:06.66 | 168609 | 178124
  •      14 | 39:35.00 |  3:57.55 | 178125 | 195954
  •      15 | 43:32.55 |  4:50.21 | 195955 | 217725
  •      16 | 48:23.01 |  4:30.70 | 217726 | 238045
  •      17 | 52:53.71 |  4:01.39 | 238046 | 256159
  •      18 | 56:55.35 |  3:19.56 | 256160 | 271140


  • 范围状态及错误

  • 已选择范围

  •      文件名 C:\Users\Farfan\Desktop\Mili - Miracle Milk\Mili - Miracle Milk.wav

  •      峰值电平 100.0 %
  •      抓取速度 2.1 X
  •      范围质量 100.0 %
  •      复制 CRC 523DF987
  •      复制成功

  • 没有错误发生

  • 状态报告结尾

  • ------------------------------------------------------------

  • Exact Audio Copy V1.3 from 2. September 2016

  • EAC 抓取日志文件从12. 十一月 2016, 18:32

  • Mili / Miracle Milk

  • 使用驱动器  :SlimtypeDVD A  DA8A5SH-L   Adapter: 1  ID: 0

  • 读取模式      : 可靠Secure
  • 使用精确流     : 是
  • 清空音频缓存    : 是
  • 使用 C2 指示器 : 否

  • 组合读写偏移校正:             : 0
  • 读取 Lead-In 和 Lead-Out : 否
  • 用静音填充抓取中丢失偏移的采样       : 是
  • 去除首尾静音块               : 否
  • 在CRC 计算中使用了空样本       : 是
  • 已用接口                  : Win NT 及 2000 本地 Win32 接口

  • 所用输出模式: : 内部 WAV 函数
  • 样本格式    : 44.100 Hz; 16 Bit; 立体声


  • 已抓取 CD 的 TOC

  •      音轨 |    起始    |    长度    |  起始扇区  |  结束扇区  
  •     --------------------------------------------
  •       1 |  0:00.00 |  2:17.01 |      0 |  10275
  •       2 |  2:17.01 |  3:41.28 |  10276 |  26878
  •       3 |  5:58.29 |  3:35.02 |  26879 |  43005
  •       4 |  9:33.31 |  4:04.17 |  43006 |  61322
  •       5 | 13:37.48 |  3:11.47 |  61323 |  75694
  •       6 | 16:49.20 |  2:05.43 |  75695 |  85112
  •       7 | 18:54.63 |  3:09.53 |  85113 |  99340
  •       8 | 22:04.41 |  3:44.02 |  99341 | 116142
  •       9 | 25:48.43 |  2:42.36 | 116143 | 128328
  •      10 | 28:31.04 |  3:13.71 | 128329 | 142874
  •      11 | 31:45.00 |  3:31.68 | 142875 | 158767
  •      12 | 35:16.68 |  2:11.16 | 158768 | 168608
  •      13 | 37:28.09 |  2:06.66 | 168609 | 178124
  •      14 | 39:35.00 |  3:57.55 | 178125 | 195954
  •      15 | 43:32.55 |  4:50.21 | 195955 | 217725
  •      16 | 48:23.01 |  4:30.70 | 217726 | 238045
  •      17 | 52:53.71 |  4:01.39 | 238046 | 256159
  •      18 | 56:55.35 |  3:19.56 | 256160 | 271140


  • 范围状态及错误

  • 已选择范围

  •      文件名 C:\Users\Farfan\Desktop\Mili - Miracle Milk\Mili - Miracle Milk.wav

  •      峰值电平 100.0 %
  •      抓取速度 2.1 X
  •      范围质量 100.0 %
  •      复制 CRC 523DF987
  •      复制成功

  • 没有错误发生

  • 状态报告结尾
  •     


  • 自抓证明




  • 百度网盘:
    本部分内容设定了隐藏,需要回复后才能看到
  • 提取码:
    此帖售价 2 『♭』,已有 3 人购买 [记录] [购买]
    购买后,将显示帖子中所有出售内容。
    若发现会员采用欺骗的方法获取财富,请立刻举报,我们会对会员处以2-N倍的罚金,严重者封掉ID!
    此段为出售的内容,购买后显示




[ 此帖被表酱紫咧在2016-11-12 23:20重新编辑 ]
本主题包含附件,请 登录 后查看, 或者 注册 成为会员
5条评分『♥』+1『C』+1『∮』+5『D』+1『♭』+7
rorikon 『♥』 +1 又帅又强 2016-11-13
rorikon 『♭』 +7 投币支持 2016-11-13
rorikon 『∮』 +5 (´・ω・`) 2016-11-13
rorikon 『D』 +1 2016-11-13
rorikon 『C』 +1 资源帖奖励 2016-11-13
离线belotsebelo
发帖
45
『♭』
13313
『D』
0
『♥』
1
『∮』
0
『C』
0
只看该作者 沙发  发表于: 2016-12-27
感谢的说!
离线ture
发帖
10
『♭』
10
『D』
0
『♥』
0
『∮』
0
『C』
0
只看该作者 板凳  发表于: 02-24
万分感谢!!!!!!!!!!!!!