论坛风格切换永遠の窄版
  • 171阅读
  • 2回复

[自抓][130123]キングレコード塩ノ谷早耶香 Dear Heaven(wav+cue) [复制链接]

上一主题 下一主题
离线表酱紫咧
 
发帖
34
『♭』
128
『D』
7
『♥』
7
『∮』
37
『C』
7
只看楼主 倒序阅读 使用道具 楼主  发表于: 2016-11-11


Dear Heaven
    

  • CD (January 23, 2013)
  • Number of Discs: 2
  • Format: Single, CD+DVD, Maxi
  • Label: キングレコード
  • Run Time: 27 分
  • ASIN: B009QB44XI
  • JAN: 4988003431662
  •     

    【収録楽曲】
  • 1. Dear Heaven
  • 2. ONE
  • 3. Calling Out
  • 4. Dear Heaven -Instrumental-
  • 5. ONE -Instrumental-
  • 6. Calling Out -Instrumental-
  •     
    自购证明



  •   
    log
  • Exact Audio Copy V1.3 from 2. September 2016

  • EAC 抓取日志文件从11. 十一月 2016, 18:20

  • 塩ノ谷早耶香 / Dear Heaven

  • 使用驱动器  :SlimtypeDVD A  DA8A5SH-L   Adapter: 1  ID: 0

  • 读取模式      : 可靠Secure
  • 使用精确流     : 是
  • 清空音频缓存    : 是
  • 使用 C2 指示器 : 否

  • 组合读写偏移校正:             : 0
  • 读取 Lead-In 和 Lead-Out : 否
  • 用静音填充抓取中丢失偏移的采样       : 是
  • 去除首尾静音块               : 否
  • 在CRC 计算中使用了空样本       : 是
  • 已用接口                  : Win NT 及 2000 本地 Win32 接口

  • 所用输出模式: : 内部 WAV 函数
  • 样本格式    : 44.100 Hz; 16 Bit; 立体声


  • 已抓取 CD 的 TOC

  •      音轨 |    起始    |    长度    |  起始扇区  |  结束扇区  
  •     --------------------------------------------
  •       1 |  0:00.00 |  4:51.31 |      0 |  21855
  •       2 |  4:51.31 |  4:23.58 |  21856 |  41638
  •       3 |  9:15.14 |  4:05.01 |  41639 |  60014
  •       4 | 13:20.15 |  4:50.49 |  60015 |  81813
  •       5 | 18:10.64 |  4:23.52 |  81814 | 101590
  •       6 | 22:34.41 |  4:01.59 | 101591 | 119724


  • 范围状态及错误

  • 已选择范围

  •      文件名 C:\Users\Farfan\Desktop\新建文件夹\塩ノ谷早耶香 - Dear Heaven.wav

  •      峰值电平 99.8 %
  •      抓取速度 3.7 X
  •      范围质量 100.0 %
  •      复制 CRC 75B2D429
  •      复制成功

  • 没有错误发生

  • 状态报告结尾

  • ------------------------------------------------------------

  • Exact Audio Copy V1.3 from 2. September 2016

  • EAC 抓取日志文件从11. 十一月 2016, 18:20

  • 塩ノ谷早耶香 / Dear Heaven

  • 使用驱动器  :SlimtypeDVD A  DA8A5SH-L   Adapter: 1  ID: 0

  • 读取模式      : 可靠Secure
  • 使用精确流     : 是
  • 清空音频缓存    : 是
  • 使用 C2 指示器 : 否

  • 组合读写偏移校正:             : 0
  • 读取 Lead-In 和 Lead-Out : 否
  • 用静音填充抓取中丢失偏移的采样       : 是
  • 去除首尾静音块               : 否
  • 在CRC 计算中使用了空样本       : 是
  • 已用接口                  : Win NT 及 2000 本地 Win32 接口

  • 所用输出模式: : 内部 WAV 函数
  • 样本格式    : 44.100 Hz; 16 Bit; 立体声


  • 已抓取 CD 的 TOC

  •      音轨 |    起始    |    长度    |  起始扇区  |  结束扇区  
  •     --------------------------------------------
  •       1 |  0:00.00 |  4:51.31 |      0 |  21855
  •       2 |  4:51.31 |  4:23.58 |  21856 |  41638
  •       3 |  9:15.14 |  4:05.01 |  41639 |  60014
  •       4 | 13:20.15 |  4:50.49 |  60015 |  81813
  •       5 | 18:10.64 |  4:23.52 |  81814 | 101590
  •       6 | 22:34.41 |  4:01.59 | 101591 | 119724


  • 范围状态及错误

  • 已选择范围

  •      文件名 C:\Users\Farfan\Desktop\新建文件夹\塩ノ谷早耶香 - Dear Heaven.wav

  •      峰值电平 99.8 %
  •      抓取速度 3.7 X
  •      范围质量 100.0 %
  •      复制 CRC 75B2D429
  •      复制成功

  • 没有错误发生

  • 状态报告结尾
  •   
    自抓证明






  • 百度网盘:
    本部分内容设定了隐藏,需要回复后才能看到
  • 提取码:
    此帖售价 1 『♭』,已有 0 人购买 [记录] [购买]
    购买后,将显示帖子中所有出售内容。
    若发现会员采用欺骗的方法获取财富,请立刻举报,我们会对会员处以2-N倍的罚金,严重者封掉ID!
    此段为出售的内容,购买后显示






[ 此帖被表酱紫咧在2016-11-12 23:32重新编辑 ]
本主题包含附件,请 登录 后查看, 或者 注册 成为会员
5条评分『♥』+1『C』+1『∮』+3『D』+1『♭』+1
ferrari 『C』 +1 资源帖奖励 2016-11-12
ferrari 『∮』 +3 资源帖奖励 2016-11-12
ferrari 『D』 +1 资源帖奖励 2016-11-12
ferrari 『♥』 +1 你是好人 2016-11-11
ferrari 『♭』 +1 你是好人 2016-11-11
离线ferrari
发帖
6939
『♭』
3790
『D』
7
『♥』
273
『∮』
74
『C』
61
只看该作者 沙发  发表于: 2016-11-11
麻烦贴下log和自抓证明哈,具体见这里~
http://bbs.big-cd.com/read.php?tid=14093&ds=1#134710

发帖辛苦了~
离线rorikon
发帖
5386
『♭』
729
『D』
17
『♥』
274
『∮』
124
『C』
45
只看该作者 板凳  发表于: 2016-11-13
欢迎入驻BCD~~