论坛风格切换永遠の窄版
  • 160阅读
  • 1回复

[自抓][140226]ポニーキャニオン中村舞子 春色COVERS(wav+cue) [复制链接]

上一主题 下一主题
离线表酱紫咧
 
发帖
36
『♭』
115
『D』
7
『♥』
7
『∮』
37
『C』
7
只看楼主 倒序阅读 使用道具 楼主  发表于: 2016-11-11



春色COVERS

  
  • CD (February 26, 2014)
  • Number of Discs: 1
  • Label: ポニーキャニオン
  • Run Time: 33 分
  • ASIN: B00I035AR2
  • JAN: 4988013598867
  •   
  •   

    切ない春の名曲をメロウに歌い上げた、中村舞子初のカヴァーアルバム!!
    出会いと別れ。桜舞う季節、それぞれの春の記憶に寄り添うマストな選曲で、

    世代を超えて心にしみる7曲が甦ります。

    【収録楽曲】
    1.サクラ色
    2.木蘭の涙
    3.桜
    4.ふれて未来を
    5.ガーネット
    6.ひだまりの詩
    7.桜色舞うころ    

    自购证明



  

Log

Exact Audio Copy V1.3 from 2. September 2016

EAC 抓取日志文件从11. 十一月 2016, 16:42

中村舞子 / 春色COVERS

使用驱动器  :SlimtypeDVD A  DA8A5SH-L   Adapter: 1  ID: 0

读取模式      : 可靠Secure
使用精确流     : 是
清空音频缓存    : 是
使用 C2 指示器 : 否

组合读写偏移校正:             : 0
读取 Lead-In 和 Lead-Out : 否
用静音填充抓取中丢失偏移的采样       : 是
去除首尾静音块               : 否
在CRC 计算中使用了空样本       : 是
已用接口                  : Win NT 及 2000 本地 Win32 接口

所用输出模式: : 内部 WAV 函数
样本格式    : 44.100 Hz; 16 Bit; 立体声


已抓取 CD 的 TOC

     音轨 |    起始    |    长度    |  起始扇区  |  结束扇区  
    --------------------------------------------
      1 |  0:00.00 |  5:29.49 |      0 |  24723
      2 |  5:29.49 |  4:26.34 |  24724 |  44707
      3 |  9:56.08 |  4:41.30 |  44708 |  65812
      4 | 14:37.38 |  4:08.21 |  65813 |  84433
      5 | 18:45.59 |  5:05.49 |  84434 | 107357
      6 | 23:51.33 |  4:22.49 | 107358 | 127056
      7 | 28:14.07 |  4:53.66 | 127057 | 149097


范围状态及错误

已选择范围

     文件名 C:\Users\Farfan\Desktop\自抓2\中村舞子 - 春色COVERS.wav

     峰值电平 99.9 %
     抓取速度 3.9 X
     范围质量 100.0 %
     复制 CRC 31D1239B
     复制成功

没有错误发生

状态报告结尾

------------------------------------------------------------

Exact Audio Copy V1.3 from 2. September 2016

EAC 抓取日志文件从11. 十一月 2016, 16:42

中村舞子 / 春色COVERS

使用驱动器  :SlimtypeDVD A  DA8A5SH-L   Adapter: 1  ID: 0

读取模式      : 可靠Secure
使用精确流     : 是
清空音频缓存    : 是
使用 C2 指示器 : 否

组合读写偏移校正:             : 0
读取 Lead-In 和 Lead-Out : 否
用静音填充抓取中丢失偏移的采样       : 是
去除首尾静音块               : 否
在CRC 计算中使用了空样本       : 是
已用接口                  : Win NT 及 2000 本地 Win32 接口

所用输出模式: : 内部 WAV 函数
样本格式    : 44.100 Hz; 16 Bit; 立体声


已抓取 CD 的 TOC

     音轨 |    起始    |    长度    |  起始扇区  |  结束扇区  
    --------------------------------------------
      1 |  0:00.00 |  5:29.49 |      0 |  24723
      2 |  5:29.49 |  4:26.34 |  24724 |  44707
      3 |  9:56.08 |  4:41.30 |  44708 |  65812
      4 | 14:37.38 |  4:08.21 |  65813 |  84433
      5 | 18:45.59 |  5:05.49 |  84434 | 107357
      6 | 23:51.33 |  4:22.49 | 107358 | 127056
      7 | 28:14.07 |  4:53.66 | 127057 | 149097


范围状态及错误

已选择范围

     文件名 C:\Users\Farfan\Desktop\自抓2\中村舞子 - 春色COVERS.wav

     峰值电平 99.9 %
     抓取速度 3.9 X
     范围质量 100.0 %
     复制 CRC 31D1239B
     复制成功

没有错误发生

状态报告结尾


自抓证明











百度网盘:
本部分内容设定了隐藏,需要回复后才能看到

提取码:
此帖售价 1 『♭』,已有 1 人购买 [记录] [购买]
购买后,将显示帖子中所有出售内容。
若发现会员采用欺骗的方法获取财富,请立刻举报,我们会对会员处以2-N倍的罚金,严重者封掉ID!
此段为出售的内容,购买后显示




[ 此帖被表酱紫咧在2016-11-12 23:30重新编辑 ]
本主题包含附件,请 登录 后查看, 或者 注册 成为会员
离线leo821024
发帖
335
『♭』
4022
『D』
6
『♥』
8
『∮』
37
『C』
6
只看该作者 沙发  发表于: 2016-11-12
感覺不錯,有一種磁性