论坛风格切换永遠の窄版
  • 394阅读
  • 3回复

[自抓][110612]takamatt - Miracle Child(wav+cue) [复制链接]

上一主题 下一主题
离线deep
 
发帖
1026
『♭』
5281
『D』
16
『♥』
29
『∮』
84
『C』
14
只看楼主 倒序阅读 使用道具 楼主  发表于: 2016-04-30

【介绍】
takamattの1stアルバム。「Just a game」「Mr. Wonder」を含む全11曲収録。バラエティーに富んだ楽しい作品になっています!

【曲目】
    01:Introduction
    02:Just a game
    03:Precious One
    04:Life is beautiful
    05:D.N.U interlude
    06:Joy of Love
    07:Miracle Child
    08:Mr. Wonder
    09:Secret Conversation
    10:Etude No.3
    11:Jewel Box

BK很有意思,百无聊赖的女主从酒吧里出来,被一群星际战士追杀,然后一个被女主捡来孩子一挥手把他们炸了233。然而没有扫描仪(


【下载】
限制2000b,20C或者2D积分(满足其一即可)
严禁转载分流



此帖售价 5 『♭』,已有 3 人购买 [记录] [购买]
购买后,将显示帖子中所有出售内容。
若发现会员采用欺骗的方法获取财富,请立刻举报,我们会对会员处以2-N倍的罚金,严重者封掉ID!
此段为出售的内容,购买后显示



(看到这张图我的心再一次痛起来,但!这都是!)
本主题包含附件,请 登录 后查看, 或者 注册 成为会员
5条评分『♥』+1『C』+1『∮』+5『D』+1『♭』+7
rorikon 『♭』 +7 爱2333 2016-04-30
rorikon 『∮』 +5 投币支持 2016-04-30
rorikon 『♥』 +1 (´・ω・`) 2016-04-30
rorikon 『D』 +1 2016-04-30
rorikon 『C』 +1 资源帖奖励 2016-04-30
离线deep
发帖
1026
『♭』
5281
『D』
16
『♥』
29
『∮』
84
『C』
14
只看该作者 沙发  发表于: 2016-04-30
  1. Exact Audio Copy V1.1 from 23. June 2015
  2. EAC extraction logfile from 29. April 2016, 19:29
  3. takamatt / Miracle Child
  4. Used drive  : MATSHITADVD-RAM UJ8G2   Adapter: 1  ID: 1
  5. Read mode               : Secure
  6. Utilize accurate stream : Yes
  7. Defeat audio cache      : Yes
  8. Make use of C2 pointers : No
  9. Read offset correction                      : 103
  10. Overread into Lead-In and Lead-Out          : No
  11. Fill up missing offset samples with silence : Yes
  12. Delete leading and trailing silent blocks   : No
  13. Null samples used in CRC calculations       : Yes
  14. Used interface                              : Native Win32 interface for Win NT & 2000
  15. Used output format : Internal WAV Routines
  16. Sample format      : 44.100 Hz; 16 Bit; Stereo
  17. TOC of the extracted CD
  18.      Track |   Start  |  Length  | Start sector | End sector
  19.     ---------------------------------------------------------
  20.         1  |  0:00.00 |  1:05.64 |         0    |     4938  
  21.         2  |  1:05.64 |  4:03.64 |      4939    |    23227  
  22.         3  |  5:09.53 |  5:47.38 |     23228    |    49290  
  23.         4  | 10:57.16 |  3:43.69 |     49291    |    66084  
  24.         5  | 14:41.10 |  1:16.63 |     66085    |    71847  
  25.         6  | 15:57.73 |  4:36.38 |     71848    |    92585  
  26.         7  | 20:34.36 |  5:18.42 |     92586    |   116477  
  27.         8  | 25:53.03 |  4:17.74 |    116478    |   135826  
  28.         9  | 30:11.02 |  4:07.42 |    135827    |   154393  
  29.        10  | 34:18.44 |  3:53.15 |    154394    |   171883  
  30.        11  | 38:11.59 |  7:38.02 |    171884    |   206235  
  31. Range status and errors
  32. Selected range
  33.      Filename D:\takamatt - Miracle Child.wav
  34.      Peak level 100.0 %
  35.      Extraction speed 3.8 X
  36.      Range quality 100.0 %
  37.      Copy CRC CC595718
  38.      Copy OK
  39. No errors occurred
  40. End of status report
  41. ---- CUETools DB Plugin V2.1.6
  42. [CTDB TOCID: n.rq8nkr_5VLUCJJXkkCZ_0z17U-] disk not present in database
  43. Submit result: 请求被中止: 请求已被取消。
  44. ==== Log checksum DCA6569C087041E3FD87F85B9068AE9FDE5538075D71381D0739F2E518FCB646 ====


离线candydre
发帖
1811
『♭』
5405
『D』
6
『♥』
108
『∮』
43
『C』
16
只看该作者 板凳  发表于: 2016-05-11
爱mr wonder
觉得takamatt一砖最好听
离线sakuyachan
发帖
286
『♭』
3882
『D』
0
『♥』
6
『∮』
0
『C』
0
只看该作者 地板  发表于: 06-18
居然没人。。。。