论坛风格切换永遠の窄版
  • 737阅读
  • 4回复

[自抓][151118]THE IDOLM@STER CINDERELLA MASTER 039塩見周子(WAV+CUE) [复制链接]

上一主题 下一主题
离线rockmntw
 
发帖
1755
『♭』
327
『D』
10
『♥』
158
『∮』
65
『C』
22
只看楼主 倒序阅读 使用道具 楼主  发表于: 2016-01-20


THE IDOLM@STER CINDERELLA MASTER 039塩見周子





登録情報


  • CD (2015/11/18)
  • ディスク枚数: 1
  • フォーマット: Single, Maxi
  • レーベル: 日本コロムビア
  • 収録時間: 27 分
  • ASIN: B016QQX0JE
  • EAN: 4988001785767


曲目リスト
ディスク:1
  1. 青の一番星
  2. 目指せ!シンデレラNO.1! -塩見周子編- (ドラマ)
  3. 青の一番星 (オリジナル・カラオケ)
  4. ボーナス・トラック



商品の説明



内容紹介



登録者数450万人を超える大人気ソーシャルゲーム「アイドルマスター シンデレラガールズ」より、
CDシリーズ第8弾が発売決定!

[収録内容]
オリジナル新曲・同カラオケ・ミニドラマ

期間限定封入特典:
「アイドルマスター シンデレラガールズ」専用CD限定デザインが手に入るシリアルナンバー付!

◇塩見周子(しおみしゅうこ) 年齢:18歳 出身地:京都府
身長:163cm 体重:45kg B82 W56 H81
誕生日:12/12 星座:射手座 血液型:B 利き手:左 趣味:献血、ダーツ

MEGA
此帖售价 0 『♭』,已有 7 人购买 [记录] [购买]
购买后,将显示帖子中所有出售内容。
若发现会员采用欺骗的方法获取财富,请立刻举报,我们会对会员处以2-N倍的罚金,严重者封掉ID!
此段为出售的内容,购买后显示

百度盤
此段为出售的内容,购买后显示


和風曲 讚


[ 此帖被rockmntw在2016-01-20 06:26重新编辑 ]
本主题包含附件,请 登录 后查看, 或者 注册 成为会员
5条评分『♥』+1『C』+1『∮』+6『D』+1『♭』+7
rorikon 『∮』 +6 This is Sparta! 2016-01-20
rorikon 『♭』 +7 投币支持 2016-01-20
rorikon 『♥』 +1 (´・ω・`) 2016-01-20
rorikon 『D』 +1 2016-01-20
rorikon 『C』 +1 资源帖奖励 2016-01-20
离线rockmntw
发帖
1755
『♭』
327
『D』
10
『♥』
158
『∮』
65
『C』
22
只看该作者 沙发  发表于: 2016-01-20
Exact Audio Copy V1.0 beta 3 from 29. August 2011

EAC 抓取日志文件从14. 一月 2016, 23:54

塩見周子(CV:ルゥ ティン) / THE IDOLM@STER CINDERELLA MASTER 039 塩見周子

使用驱动器  :ATAPI   iHAS324   B   Adapter: 1  ID: 1

读取模式      : 可靠Secure
使用精确流     : 是
清空音频缓存    : 否
使用 C2 指示器 : 否

读取偏移校正:               : 6
读取 Lead-In 和 Lead-Out : 否
用静音填充抓取中丢失偏移的采样       : 是
去除首尾静音块               : 否
在CRC 计算中使用了空样本       : 是
已用接口                  : Win NT 及 2000 本地 Win32 接口

所用输出模式: : 内部 WAV 函数
样本格式    : 44.100 Hz; 16 Bit; 立体声


已抓取 CD 的 TOC

     音轨 |    起始    |    长度    |  起始扇区  |  结束扇区  
    --------------------------------------------
      1 |  0:00.00 |  5:11.17 |      0 |  23341
      2 |  5:11.17 | 15:22.71 |  23342 |  92562
      3 | 20:34.13 |  5:12.01 |  92563 | 115963
      4 | 25:46.14 |  1:13.21 | 115964 | 121459


范围状态及错误

已选择范围

     文件名 D:\THE IDOLM@STER CINDERELLA MASTER 039 塩見周子\塩見周子(CV:ルゥ ティン) - THE IDOLM@STER CINDERELLA MASTER 039 塩見周子.wav

     峰值电平 98.8 %
     抓取速度 3.9 X
     范围质量 100.0 %
     复制 CRC F377DE70
     复制成功

没有错误发生

状态报告结尾

==== 记录校验日志 6E9DACC1D1C21F9F0720D4016994F60D43D42CC7DC04788F39C9955922597DC2 ====

------------------------------------------------------------

Exact Audio Copy V1.0 beta 3 from 29. August 2011

EAC 抓取日志文件从14. 一月 2016, 23:54

塩見周子(CV:ルゥ ティン) / THE IDOLM@STER CINDERELLA MASTER 039 塩見周子

使用驱动器  :ATAPI   iHAS324   B   Adapter: 1  ID: 1

读取模式      : 可靠Secure
使用精确流     : 是
清空音频缓存    : 否
使用 C2 指示器 : 否

读取偏移校正:               : 6
读取 Lead-In 和 Lead-Out : 否
用静音填充抓取中丢失偏移的采样       : 是
去除首尾静音块               : 否
在CRC 计算中使用了空样本       : 是
已用接口                  : Win NT 及 2000 本地 Win32 接口

所用输出模式: : 内部 WAV 函数
样本格式    : 44.100 Hz; 16 Bit; 立体声


已抓取 CD 的 TOC

     音轨 |    起始    |    长度    |  起始扇区  |  结束扇区  
    --------------------------------------------
      1 |  0:00.00 |  5:11.17 |      0 |  23341
      2 |  5:11.17 | 15:22.71 |  23342 |  92562
      3 | 20:34.13 |  5:12.01 |  92563 | 115963
      4 | 25:46.14 |  1:13.21 | 115964 | 121459


范围状态及错误

已选择范围

     文件名 D:\THE IDOLM@STER CINDERELLA MASTER 039 塩見周子\塩見周子(CV:ルゥ ティン) - THE IDOLM@STER CINDERELLA MASTER 039 塩見周子.wav

     峰值电平 98.8 %
     抓取速度 3.9 X
     范围质量 100.0 %
     复制 CRC F377DE70
     复制成功

没有错误发生

状态报告结尾

==== 记录校验日志 6E9DACC1D1C21F9F0720D4016994F60D43D42CC7DC04788F39C9955922597DC2 ====
离线charlie0035
发帖
3
『♭』
1
『D』
0
『♥』
0
『∮』
0
『C』
0
只看该作者 板凳  发表于: 01-05
聽一次就停不下來了~感謝!!
离线alen5992212
发帖
2
『♭』
13
『D』
0
『♥』
0
『∮』
0
『C』
0
只看该作者 地板  发表于: 04-18
這首很好聽,一直想聽完整版的,感謝
离线feice11
发帖
9
『♭』
7
『D』
0
『♥』
0
『∮』
0
『C』
0
只看该作者 4坟墓  发表于: 09-13