论坛风格切换永遠の窄版
  • 717阅读
  • 13回复

[自抓][150516] add9(ヘリP) - 繋ぐ未来とイノセンス (wav+cue+rr5%) [复制链接]

上一主题 下一主题
离线alastor
 
发帖
2615
『♭』
4426
『D』
11
『♥』
148
『∮』
62
『C』
31
只看楼主 倒序阅读 使用道具 楼主  发表于: 2015-08-16
— 本帖被 ferrari 执行加亮操作(2015-08-16) —


CD (2015/5/16)
ディスク枚数: 1
レーベル: Propelly Village 販売:密林社
収録時間: 43 分
ASIN: B00WZ4KPL8
EAN: 4560491326011



CD紹介

ヘリP の VOCALOID 1st album 。
代表作の 『風待ちハローワールド』 を筆頭に、これまでにリリースした既存曲からの選りすぐりに新曲を加えた全10曲を収録。
ジャケットイラストなどのアートワークを koyubi氏 が、マスタリングを 150P が手掛ける。
THE VOC@LOiD 超 M@STER 31(超ボーマス4)にてリリース。
Amazonで委託販売が行われている。


曲目

01. ひとつの始まり
02. 風待ちハローワールド
03. ブレイブストーリー
04. ジンジャーとリリー
05. over the latency
06. イグドラ
07. スカイ・シグナル
08. 駆ける、星空の彼方へ
09. デイブレイク
10. ミライ・イノセンス



个人意见

add9(ヘリP)……你们应该见过,至少『風待ちハローワールド』基本上大部分人都听过。

其实我也就听过这一首2333然后这张碟整体风格差不多吧,基本就是小清新路线(就是差不多40mp那种路子,当然没40mp的水平),听起来还不错,就是节奏、配器什么的重复比较多,旋律也比较大众化,全碟听下来有点审美疲劳。另外调教一般。

推荐大家听听吧(反正『風待ちハローワールド』确实是不错的。

然后强迫症们注意,cue里面有两首曲目的名字里面有个分隔符『・』,这个我抓碟的时候设置了,但是EAC生成的log默认是GB编码的,这个分隔符就自动变成英文句号了,虽然CUE我已经转了UTF8,但是这个分隔符还需要手动编辑下才行。我也是刚刚发帖才发现的,压缩包我早都传了,所以你们自己改下吧。

顺便扯点题外话,我对专辑分高低大概是安装这个标准:打比方,我最喜欢的p比如jimmy、40mp(早期),他们的砖基本上每首歌我都觉得很有亮点,都很好听,这是第一层次。稍微次一点就是scop这种全碟基本上都不错,然后总有一两首是亮点,特别好听的。第三层差不多就是今天发的这张,全碟都不错,但没啥亮点(其实还是有点亮点的)。第四第五层次我就不用说了,大家都知道。

不过偶尔也有一些奇怪的碟,有一两首非常好听,然后其他的都不喜欢的这种2333这样我还真不知道怎么分类了。当然我说的是p的个人碟。集合商碟的话,有几首很好听的就是成功,有很多都很好听那是大成功,都一般般的话就是普通水准,如果都不太喜欢那就是失败(其实好像大部分集合碟都是这样的

这是第二张,还有四张……剩下有两张是电杆p的2333

压缩用的是rar5,如果解压不了请先检查解包软件是否支持rar5,然后我加了5%恢复记录,一般出的小问题应该都能修复的。


下载

限制700b,10C或者2D积分(满足其一即可)
禁止任何形式的转载


地址:
本部分内容设定了隐藏,需要回复后才能看到


解压密码:
此帖售价 50 『♭』,已有 5 人购买 [记录] [购买]
购买后,将显示帖子中所有出售内容。
若发现会员采用欺骗的方法获取财富,请立刻举报,我们会对会员处以2-N倍的罚金,严重者封掉ID!
此段为出售的内容,购买后显示


ps. 自抓证明我就不重复发了,太中二。log见后
本主题包含附件,请 登录 后查看, 或者 注册 成为会员
6条评分『♥』+1『C』+1『∮』+7『D』+1『♭』+5
rorikon 『♥』 +1 This is Sparta! 2015-08-16
ferrari 『♭』 +5 壕- 2015-08-16
ferrari 『∮』 +1 投币支持 2015-08-16
ferrari 『∮』 +6 投币支持 2015-08-16
ferrari 『C』 +1 投币支持 2015-08-16
ferrari 『D』 +1 投币支持 2015-08-16
离线alastor
发帖
2615
『♭』
4426
『D』
11
『♥』
148
『∮』
62
『C』
31
只看该作者 沙发  发表于: 2015-08-16
  1. Exact Audio Copy V1.0 beta 3 from 29. August 2011
  2. EAC extraction logfile from 2. August 2015, 11:58
  3. add9(ヘリP) / 繋ぐ未来とイノセンス
  4. Used drive  : Optiarc DVD RW AD-7710H   Adapter: 1  ID: 0
  5. Read mode               : Secure
  6. Utilize accurate stream : Yes
  7. Defeat audio cache      : Yes
  8. Make use of C2 pointers : No
  9. Read offset correction                      : 48
  10. Overread into Lead-In and Lead-Out          : No
  11. Fill up missing offset samples with silence : Yes
  12. Delete leading and trailing silent blocks   : No
  13. Null samples used in CRC calculations       : Yes
  14. Used interface                              : Native Win32 interface for Win NT & 2000
  15. Used output format : Internal WAV Routines
  16. Sample format      : 44.100 Hz; 16 Bit; Stereo
  17. TOC of the extracted CD
  18.      Track |   Start  |  Length  | Start sector | End sector
  19.     ---------------------------------------------------------
  20.         1  |  0:00.00 |  4:09.45 |         0    |    18719  
  21.         2  |  4:09.45 |  4:28.21 |     18720    |    38840  
  22.         3  |  8:37.66 |  3:46.48 |     38841    |    55838  
  23.         4  | 12:24.39 |  4:09.64 |     55839    |    74577  
  24.         5  | 16:34.28 |  3:15.18 |     74578    |    89220  
  25.         6  | 19:49.46 |  5:24.00 |     89221    |   113520  
  26.         7  | 25:13.46 |  4:01.49 |    113521    |   131644  
  27.         8  | 29:15.20 |  3:48.52 |    131645    |   148796  
  28.         9  | 33:03.72 |  4:15.45 |    148797    |   167966  
  29.        10  | 37:19.42 |  4:58.24 |    167967    |   190340  
  30. Range status and errors
  31. Selected range
  32.      Filename F:\rip\add9(ヘリP) - 繋ぐ未来とイノセンス.wav
  33.      Peak level 100.0 %
  34.      Extraction speed 3.6 X
  35.      Range quality 100.0 %
  36.      Copy CRC 172858D9
  37.      Copy OK
  38. No errors occurred
  39. AccurateRip summary
  40. Track  1  accurately ripped (confidence 1)  [95313347]  (AR v2)
  41. Track  2  accurately ripped (confidence 1)  [96D80C07]  (AR v2)
  42. Track  3  accurately ripped (confidence 1)  [30123876]  (AR v2)
  43. Track  4  accurately ripped (confidence 1)  [BE3E4916]  (AR v2)
  44. Track  5  accurately ripped (confidence 1)  [97BA17FD]  (AR v2)
  45. Track  6  accurately ripped (confidence 1)  [7C58589D]  (AR v2)
  46. Track  7  accurately ripped (confidence 1)  [82A39B55]  (AR v2)
  47. Track  8  accurately ripped (confidence 1)  [AE4B2242]  (AR v2)
  48. Track  9  accurately ripped (confidence 1)  [AF0E2869]  (AR v2)
  49. Track 10  accurately ripped (confidence 1)  [37B9E118]  (AR v2)
  50. All tracks accurately ripped
  51. End of status report
  52. ---- CUETools DB Plugin V2.1.3
  53. [CTDB TOCID: oFugtuNnZ1o8tA.82Re7t17mvQM-] found, Submit result: oFugtuNnZ1o8tA.82Re7t17mvQM- has been confirmed
  54. [218af39a] (1/1) Accurately ripped
  55. ==== Log checksum 157875CDA70AABD452266D946D1E2586481B9AC135F36452B1B328F474ECC912 ====
离线rorikon
发帖
5654
『♭』
519
『D』
17
『♥』
277
『∮』
124
『C』
45
只看该作者 板凳  发表于: 2015-08-16
你的歌德怎么样了    习惯接受了没
离线alastor
发帖
2615
『♭』
4426
『D』
11
『♥』
148
『∮』
62
『C』
31
只看该作者 地板  发表于: 2015-08-16
回 rorikon 的帖子
rorikon:[表情] 你的歌德怎么样了    习惯接受了没 (2015-08-16 22:59) 

啥?耳机么

听了这么多年都习惯了2333

就是海绵不行了,打算买对新的

不过说实话现在听歌时间越来越少了

反正还是觉得歌德不适合V+
离线kazuma
发帖
459
『♭』
10003
『D』
0
『♥』
20
『∮』
10
『C』
11
只看该作者 4坟墓  发表于: 2015-08-17
cue编码是对应系统语言的吧,中文系统就是gb2312,日文的就是jis
log编码默认用是哪种unicode,估计是utf16吧
离线alastor
发帖
2615
『♭』
4426
『D』
11
『♥』
148
『∮』
62
『C』
31
只看该作者 5 希腊  发表于: 2015-08-17
回 kazuma 的帖子
kazuma:cue编码是对应系统语言的吧,中文系统就是gb2312,日文的就是jis
log编码默认用是哪种unicode,估计是utf16吧 (2015-08-17 07:14) 

脑抽了,我想说cue来的
离线leo821024
发帖
342
『♭』
3955
『D』
6
『♥』
8
『∮』
37
『C』
6
只看该作者 6天桥  发表于: 2015-08-17
這張滿溫暖的,挺享受的ww
离线deep
发帖
1063
『♭』
5530
『D』
16
『♥』
29
『∮』
84
『C』
14
只看该作者 7奶奶的大腿  发表于: 2015-08-17
撕脱打算买耳塞还是大耳呢
离线alastor
发帖
2615
『♭』
4426
『D』
11
『♥』
148
『∮』
62
『C』
31
只看该作者 8蓝的尾巴  发表于: 2015-08-18
回 deep 的帖子
deep:撕脱打算买耳塞还是大耳呢 (2015-08-17 22:29) 

我打算买的是海绵23333

要说买耳机的话,我还是买大耳吧。大耳机听多了,耳塞不习惯

之前想买gmp450pro的,后来看了看评价发现比较难推就算了2333
离线starcat
发帖
2210
『♭』
14503
『D』
0
『♥』
12
『∮』
0
『C』
0
只看该作者 ⑨十二号公路  发表于: 2015-08-19
难得买一帖
离线zqh9843
发帖
830
『♭』
3708
『D』
0
『♥』
11
『∮』
0
『C』
1
只看该作者 10楼 发表于: 2015-08-19
80b....我还是先谨慎的试听一下吧。。。
离线alastor
发帖
2615
『♭』
4426
『D』
11
『♥』
148
『∮』
62
『C』
31
只看该作者 11楼 发表于: 2015-08-19
回 zqh9843 的帖子
zqh9843:80b....我还是先谨慎的试听一下吧。。。 (2015-08-19 10:06) 

2000b的男人,你的b有地方用吗?23333而且这80b我也拿不到
离线sonicspeed
发帖
1716
『♭』
211
『D』
44
『♥』
126
『∮』
237
『C』
39
只看该作者 12楼 发表于: 2015-08-19
投B支持,虽说这张早有了
离线lanech
发帖
1166
『♭』
17625
『D』
286
『♥』
234
『∮』
1492
『C』
190
只看该作者 13楼 发表于: 09-04
对add9的印象也就只有風待ちハローワールド