论坛风格切换永遠の窄版
  • 872阅读
  • 16回复

[自抓][150103] すこっぷ - Forgive Forget (wav+cue+rr5%) [复制链接]

上一主题 下一主题
离线alastor
 
发帖
2615
『♭』
4426
『D』
11
『♥』
148
『∮』
62
『C』
31
只看楼主 倒序阅读 使用道具 楼主  发表于: 2015-08-11
— 本帖被 ferrari 执行加亮操作(2015-08-11) —


CD (2015/1/3)
ディスク枚数: 1
レーベル: No one hears
ASIN: B00PSTC15A
EAN: 4580384700070



CD紹介

書き下ろしの新曲のみで構成された すこっぷ氏 の 7th album 。全8曲を収録。
なお、本CDに収録されている曲は今後も単独リリースする予定はないとのこと。
会場特典として、クリアファイルが付いてくる。
ジャケットイラストは ハラダミユキ氏 が手掛ける。
C87(コミックマーケット87)にてリリース。書店委託も予定している。通販も受付中。


曲目


1. Forgive Forget
2. イデア
3. フロムゴースト
4. 諦観
5. ミスターパペッツ
6. 絶望ごっこ
7. 十二月のカゲロウ
8. For you



个人意见

最近忙破头,心态也有点问题,搞得回家以后什么事都不想做。

题外话不谈,说说这张碟……scop的碟其实没啥说的,喜欢scop的人应该会觉得非常好听…我就是喜欢scop的人

所以强烈推荐。

当然我觉得这碟大家都有了应该。

不过这碟只有8首曲……

今天就发这一张吧,剩下的其他时候再发(我会告诉你其实我还没听完?

压缩用的是rar5,如果解压不了请先检查解包软件是否支持rar5,然后我加了5%恢复记录,一般出的小问题应该都能修复的。


下载

限制700b,10C或者2D积分(满足其一即可)
禁止任何形式的转载


地址:
本部分内容设定了隐藏,需要回复后才能看到


解压密码:
此帖售价 50 『♭』,已有 5 人购买 [记录] [购买]
购买后,将显示帖子中所有出售内容。
若发现会员采用欺骗的方法获取财富,请立刻举报,我们会对会员处以2-N倍的罚金,严重者封掉ID!
此段为出售的内容,购买后显示


ps. 自抓证明和log见后
本主题包含附件,请 登录 后查看, 或者 注册 成为会员
4条评分『C』+1『∮』+6『D』+1『♭』+5
ferrari 『♭』 +5 封面不错! 2015-08-11
ferrari 『∮』 +6 -- 2015-08-11
ferrari 『C』 +1 你是好人 2015-08-11
ferrari 『D』 +1 你是好人 2015-08-11
离线alastor
发帖
2615
『♭』
4426
『D』
11
『♥』
148
『∮』
62
『C』
31
只看该作者 沙发  发表于: 2015-08-11
  1. Exact Audio Copy V1.0 beta 3 from 29. August 2011
  2. EAC extraction logfile from 2. August 2015, 10:38
  3. すこっぷ / Forgive Forget
  4. Used drive  : Optiarc DVD RW AD-7710H   Adapter: 1  ID: 0
  5. Read mode               : Secure
  6. Utilize accurate stream : Yes
  7. Defeat audio cache      : Yes
  8. Make use of C2 pointers : No
  9. Read offset correction                      : 48
  10. Overread into Lead-In and Lead-Out          : No
  11. Fill up missing offset samples with silence : Yes
  12. Delete leading and trailing silent blocks   : No
  13. Null samples used in CRC calculations       : Yes
  14. Used interface                              : Native Win32 interface for Win NT & 2000
  15. Used output format : Internal WAV Routines
  16. Sample format      : 44.100 Hz; 16 Bit; Stereo
  17. TOC of the extracted CD
  18.      Track |   Start  |  Length  | Start sector | End sector
  19.     ---------------------------------------------------------
  20.         1  |  0:00.00 |  5:10.18 |         0    |    23267  
  21.         2  |  5:10.18 |  3:12.48 |     23268    |    37715  
  22.         3  |  8:22.66 |  2:44.62 |     37716    |    50077  
  23.         4  | 11:07.53 |  2:46.66 |     50078    |    62593  
  24.         5  | 13:54.44 |  3:24.30 |     62594    |    77923  
  25.         6  | 17:18.74 |  3:36.25 |     77924    |    94148  
  26.         7  | 20:55.24 |  4:03.44 |     94149    |   112417  
  27.         8  | 24:58.68 |  3:19.61 |    112418    |   127403  
  28. Range status and errors
  29. Selected range
  30.      Filename F:\rip\すこっぷ - Forgive Forget.wav
  31.      Peak level 98.0 %
  32.      Extraction speed 3.3 X
  33.      Range quality 100.0 %
  34.      Copy CRC C769991F
  35.      Copy OK
  36. No errors occurred
  37. AccurateRip summary
  38. Track  1  accurately ripped (confidence 2)  [02F2F75B]  (AR v2)
  39. Track  2  accurately ripped (confidence 2)  [9C2E1C33]  (AR v2)
  40. Track  3  accurately ripped (confidence 2)  [22AF8B11]  (AR v2)
  41. Track  4  accurately ripped (confidence 2)  [B424725D]  (AR v2)
  42. Track  5  accurately ripped (confidence 2)  [5CF14682]  (AR v2)
  43. Track  6  accurately ripped (confidence 2)  [E64014BB]  (AR v2)
  44. Track  7  accurately ripped (confidence 2)  [5FDE11EB]  (AR v2)
  45. Track  8  accurately ripped (confidence 2)  [BD59158F]  (AR v2)
  46. All tracks accurately ripped
  47. End of status report
  48. ---- CUETools DB Plugin V2.1.3
  49. [CTDB TOCID: R3ijWriKN5iJrGulkYNHvwnm1_k-] found, Submit result: R3ijWriKN5iJrGulkYNHvwnm1_k- has been confirmed
  50. [04c7615f] (4/4) Accurately ripped
  51. ==== Log checksum 82EC3676B11E0A1B625AFEF8D05B27B1FA942E719194885328FBA93FC7C7A962 ====


中二的自抓证明


[ 此帖被alastor在2015-08-11 00:29重新编辑 ]
本主题包含附件,请 登录 后查看, 或者 注册 成为会员
1条评分『♥』+1
silencer19 『♥』 +1 打码技术真6 2333 2015-08-18
离线kazuma
发帖
459
『♭』
10003
『D』
0
『♥』
20
『∮』
10
『C』
11
只看该作者 板凳  发表于: 2015-08-11
scop都7张砖了,真是意外地高产
离线苏虞佳
发帖
1075
『♭』
52
『D』
12
『♥』
41
『∮』
84
『C』
12
只看该作者 地板  发表于: 2015-08-11
单子上的签名好评!
我也是喜欢scop的人www
离线压路机
发帖
792
『♭』
3198
『D』
3
『♥』
99
『∮』
24
『C』
34
只看该作者 4坟墓  发表于: 2015-08-11
报告 没有这张碟 我不是大家
离线rorikon
发帖
5654
『♭』
519
『D』
17
『♥』
277
『∮』
124
『C』
45
只看该作者 5 希腊  发表于: 2015-08-11
签名好评
本主题包含附件,请 登录 后查看, 或者 注册 成为会员
离线sofaria
发帖
513
『♭』
4422
『D』
3
『♥』
23
『∮』
20
『C』
3
只看该作者 6天桥  发表于: 2015-08-11
冲封面进去的……封面的画师我灰常喜欢
离线candydre
发帖
1819
『♭』
5350
『D』
6
『♥』
108
『∮』
43
『C』
16
只看该作者 7奶奶的大腿  发表于: 2015-08-13
看到隔壁jin黑回复又想起了irony被如月刷下的事233
于是现在只喜欢两首soft 嗯 (东京复古狂降好感
[ 此帖被candydre在2015-08-13 02:21重新编辑 ]
1条评分『♥』+1
alastor 『♥』 +1 为何要让我想起这种事23333东京复古…还好吧,风格变了 2015-08-13
离线sonicspeed
发帖
1716
『♭』
211
『D』
44
『♥』
126
『∮』
237
『C』
39
只看该作者 8蓝的尾巴  发表于: 2015-08-13
我想说这P主没听说过,话说既然在V区,CV都是初音么 。。。另,耳机大土豪发碟,必属精品(逃⊙﹏⊙b)
1条评分『♥』+1
alastor 『♥』 +1 并不是土豪。这p主强烈推荐 2015-08-13
离线dearviolin
发帖
2238
『♭』
1079
『D』
1
『♥』
410
『∮』
11
『C』
5
只看该作者 ⑨十二号公路  发表于: 2015-08-17
すこっぷ 的風格個人還蠻喜歡的說~
收下聽聽看喔~
离线leo821024
发帖
342
『♭』
3955
『D』
6
『♥』
8
『∮』
37
『C』
6
只看该作者 10楼 发表于: 2015-08-17
這張也來收一下啦~~
离线silencer19
发帖
1114
『♭』
2255
『D』
6
『♥』
37
『∮』
47
『C』
6
只看该作者 11楼 发表于: 2015-08-18
我来听听~ 好久没听任何东西了.. 回家就洗洗睡...
离线sonicspeed
发帖
1716
『♭』
211
『D』
44
『♥』
126
『∮』
237
『C』
39
只看该作者 12楼 发表于: 2015-08-21
…………发现就第四首合我口味
离线alastor
发帖
2615
『♭』
4426
『D』
11
『♥』
148
『∮』
62
『C』
31
只看该作者 13楼 发表于: 2015-08-22
回 sonicspeed 的帖子
sonicspeed:…………发现就第四首合我口味[表情]  (2015-08-21 21:53) 

我去分析下你的口味,下次对症下药23333
离线alastor
发帖
2615
『♭』
4426
『D』
11
『♥』
148
『∮』
62
『C』
31
只看该作者 14楼 发表于: 2015-08-22
回 sonicspeed 的帖子
sonicspeed:…………发现就第四首合我口味[表情]  (2015-08-21 21:53) 

scop上一张『ヒロイニシティ』,第三首《クライヤ》,第九首《嫌いな街》

上上一张『境界センチメンタル』,第四首《アイロニ》,第六首《外見と内面》,第九首《月しか知らない》

这些算是比较典型的scop吧……然后可能比较符合你的口味的……也是比较新的,先听听看吧

反正我一开始也不是很喜欢scop,结果后来听多了就突然喜欢了,觉得他的砖没有不好听的曲,统统都好听
离线安鲁迪玛
发帖
226
『♭』
3729
『D』
4
『♥』
7
『∮』
24
『C』
5
只看该作者 15楼 发表于: 2016-11-06
挺喜欢这P主的曲子的啊
离线lanech
发帖
1166
『♭』
17625
『D』
286
『♥』
234
『∮』
1492
『C』
190
只看该作者 16楼 发表于: 09-05
scop我都快忘记这货了,想起这张碟还没听过