论坛风格切换永遠の窄版
  • 620阅读
  • 1回复

[自抓][自掃][150520]「ブレイブリーセカンド」OP&ED『Great Distance』(BD付初回限定盤)/ryo(supercell) feat.chelly(wav+png+bdmv) [复制链接]

上一主题 下一主题
离线h_12439
 
发帖
76
『♭』
509
『D』
7
『♥』
5
『∮』
52
『C』
6
只看楼主 倒序阅读 使用道具 楼主  发表于: 2015-05-23

BK preview


登録情報
CD (2015/5/20)
ディスク枚数: 2
フォーマット: Single, CD+Blu-ray, Limited Edition, Maxi
レーベル: SMR
収録時間: 20 分
ASIN: B00VKNFV0K
品番: SRCL-8810~1

商品の説明
スクウェア・エニックスが贈る王道ファンタジーRPG、ニンテンドー3DS専用ゲームソフト「ブレイブリーセカンド」とのタイアップ作!前作「ブレイブリーデフォルト」は全世界で100万本以上を出荷した超人気作品。
ryo (supercell)はこの「ブレイブリーセカンド」の音楽を担当。今回収録される楽曲は「Great Distance」は同ゲームのオープニングテーマ、「Last Song」はエンディングテーマとなっている。
ヴォーカルは、EGOISTのヴォーカルchellyが務める。
【初回生産限定盤】スーパージュエルケース仕様、CD+BD、スクウェア・エニックス「ブレイブリーセカンド」のキャラクター専用衣装が“選んで”もらえるシリアルコード封入

※初回限定盤をご希望の場合、単品でのご注文をお願いします。他の商品とあわせてご注文されますと、それらの商品の発送可能時期によりましては、初回特典付をお取り置きできない場合がございますので、ご了承ください。
※在庫がなくなり次第終了となります。

メディア掲載レビューほか
スクウェア・エニックスが贈る王道ファンタジーRPG、ニンテンドー3DS専用ゲームソフト『ブレイブリーセカンド』とのタイアップ作!ryo(supercell)が手掛けた同ゲームのオープニング・テーマ「Great Distance」、エンディング・テーマ「Last Song」を収めたシングル。歌唱は、EGOISTのヴォーカルchellyが担当。

OP試聽

TRACKLIST
DISC1 CD
1. Great Distance    
2. Last Song    
3. Great Distance -Instrumental-    
4. Last Song -Instrumental-    

DISC2 BD
1. 「ブレイブリーセカンド」Opening Movie
2. “ブレイブリーセカンド”Promotion Movie ~胎動篇~
3. “ブレイブリーセカンド”Promotion Movie ~胎動篇~ (三銃士ver)
4. “ブレイブリーセカンド”Promotion Movie ~旋律篇~
5. “ブレイブリーセカンド”Promotion Movie ~覚醒篇~

LOG
DISC1
Exact Audio Copy V1.0 beta 3 from 29. August 2011
EAC extraction logfile from 22. May 2015, 14:37
ryo (supercell) feat. chelly / Great Distance
Used drive  : PIONEER BD-RW   BDR-208M   Adapter: 2  ID: 0
Read mode               : Secure
Utilize accurate stream : Yes
Defeat audio cache      : Yes
Make use of C2 pointers : No
Read offset correction                      : 667
Overread into Lead-In and Lead-Out          : No
Fill up missing offset samples with silence : Yes
Delete leading and trailing silent blocks   : No
Null samples used in CRC calculations       : Yes
Used interface                              : Native Win32 interface for Win NT & 2000
Used output format : Internal WAV Routines
Sample format      : 44.100 Hz; 16 Bit; Stereo
TOC of the extracted CD
     Track |   Start  |  Length  | Start sector | End sector
    ---------------------------------------------------------
        1  |  0:00.00 |  4:33.13 |         0    |    20487  
        2  |  4:33.13 |  5:29.17 |     20488    |    45179  
        3  | 10:02.30 |  4:32.72 |     45180    |    65651  
        4  | 14:35.27 |  5:27.39 |     65652    |    90215  
Range status and errors
Selected range
     Filename C:\Users\user\Downloads\EAC\[EAC][150520]「ブレイブリーセカンド」OP&ED『Great Distance』(BD付初回限定盤)/ryo (supercell) feat.chelly (wav+cue+log+png+BDMV)\SRCL-8810.wav
     Peak level 98.9 %
     Extraction speed 5.8 X
     Range quality 100.0 %
     Copy CRC 0316B070
     Copy OK
No errors occurred
AccurateRip summary
Track  1  not present in database
Track  2  not present in database
Track  3  not present in database
Track  4  not present in database
None of the tracks are present in the AccurateRip database
End of status report
---- CUETools DB Plugin V2.1.3
[CTDB TOCID: J0.06OKESHH_9tsk9yXiy0E7MPk-] found, Submit result: J0.06OKESHH_9tsk9yXiy0E7MPk- has been confirmed
[fbdda10e] (6/6) Accurately ripped
==== Log checksum 663855AC648CBB6E87E2921AAE39DB950E6714A19BDDCFEF7B7CE5D06FB2232B ====


BK 1200dpi 精修(已去網紋) PNG
分為未縮圖版(485M)和有縮圖版(2000高,62M)
自取所需 (推薦下載縮圖版!)

音源、BK已添加rr3%恢復記錄
如解壓縮有錯誤請先自行修復,不行再PM

允許轉載,轉載請註明 Scanned and ripped by h_12439@U2

載點
此帖售价 10 『♭』,已有 1 人购买 [记录] [购买]
购买后,将显示帖子中所有出售内容。
若发现会员采用欺骗的方法获取财富,请立刻举报,我们会对会员处以2-N倍的罚金,严重者封掉ID!
此段为出售的内容,购买后显示



自購證明
对不起!您没有登录,请先登录论坛.


===底下是碎碎念===
比起OP更喜歡ED呢~
雖然不知道為什麼這次換了名義發片,以前都是用EGOIST
底下是個人私心感想
我認為第一首great distance的風格跟以前的EGOIST有一些差異的
感覺是nagi的風格,或許這是在試水溫? 不過我也蠻喜歡的就是
而第二首的last song則是和以前的風格較相近,非常適合chelly的聲線
一如往昔的EGOIST調調,柔和的曲風配上chelly真的是美哭了....
總結是不管用什麼名義,能繼續出新單就很感動了

最後要吐槽一下,換了名義包裝的殼子就跟著換了是什麼意思...
以前EGOIST都是紙+塑膠盒,這是就換成了廉價長型塑膠殼(歐規)
收到貨還發現裂了兩條痕,其中一條還是藏在貼紙底下的我也是醉了233



[ 此帖被h_12439在2015-05-23 22:18重新编辑 ]
4条评分『C』+1『∮』+9『D』+1『♭』+5
ferrari 『∮』 +9 (´・ω・`) 2015-05-24
ferrari 『♭』 +5 (´・ω・`) 2015-05-24
ferrari 『C』 +1 你是好人 2015-05-23
ferrari 『D』 +1 你是好人 2015-05-23
离线fra3n5k8
发帖
4
『♭』
3
『D』
0
『♥』
0
『∮』
0
『C』
0
只看该作者 沙发  发表于: 02-21
謝謝 我每天盼星星盼月亮  終於盼到了這張專輯

樓主好人 一生平安