论坛风格切换永遠の窄版
  • 1784阅读
  • 18回复

[自抓][合集][EAC] 音楽少女 相關CDx3 (3wav+cue+log+png) [复制链接]

上一主题 下一主题
离线h_12439
 
发帖
76
『♭』
509
『D』
7
『♥』
5
『∮』
52
『C』
6
只看楼主 倒序阅读 使用道具 楼主  发表于: 2015-04-28

音楽少女HP

FILELIST
[EAC][130329] 音楽少女 千歳ハル&熊谷絵里 2 in Pack「Hero & Professor」(初回限定盤)(2wav+cue+log+png)  2CD
----千歳ハル - Rock The Hero
----熊谷絵里 - Electronic Resonance
[EAC][141127] 音楽少女 千歳ハル&熊谷絵里 2nd Album「Perfect Free」(予約限定盤)(wav+cue+log+png+特典月曆)  1CD


音楽少女 千歳ハル&熊谷絵里 2 in Pack「Hero & Professor」

【発売日】2013年3月29日(金)
【価 格】¥3,150 (初版限定パック) ※初版以降はございません
【収録曲数】10TRACKS

PS:此PACK為 Rock the Hero + Electronic Resonance (兩專打包一起賣)

音楽少女「Rock the Hero」/ 千歳ハル(cv,沼倉愛美)

BK preview


試聽

 【アーティスト】千歳ハル(cv,沼倉愛美)
 【ジャンル】永遠の王道!バンドROCK
 【価 格】¥1,500 (初版特別価格) ※初版以降は¥1,890となります
 【収録曲】5TRACKS

  [TRACK]
  01 EVERYDAY HERO
  02 Rock Me!
  03 サンシャイン・ベイブ
  04 天空戦隊ゼロウィンガー
  05 Re:フレンド

  [STAFF]
  Vocal 千歳ハル(cv,沼倉愛美)
  作詞 くまのきよみ 作曲 AKIRASTAR

音楽少女「Electronic Resonance」/ 熊谷絵里(cv,瀬戸麻沙美)

BK preview


試聽

 【アーティスト】熊谷絵里(cv,瀬戸麻沙美)
 【ジャンル】Electronic Music
 【価 格】¥1,500 (初版特別価格) ※初版以降は¥1,890となります
 【収録曲】5TRACKS

  [TRACK]
  01 Moonlight Forest
  02 Back to Marie
  03 Crystal Sound
  04 Sword of the Light
  05 Dear My Friend

  [STAFF]
  Vocal 熊谷絵里(cv,瀬戸麻沙美)
  作詞 kato.yoshinal (Electro.muster) 作曲 Taishi (Electro.muster)

音楽少女 千歳ハル&熊谷絵里「Perfect Free」

BK preview


試聽

【発売日】 2014年11月27日
【価 格】通常盤¥3,240 予約限定盤グッズセット¥4,000
【収録曲数】11TRACKS

  [TRACK]
  01 Perfect Free / 千歳ハル&熊谷絵里
  02 Lucy / 千歳ハル
  03 月面飛行のリリファ / 熊谷絵里
  04 Angelfire / 千歳ハル
  05 メサイア・コンプレックス / 熊谷絵里
  06 ロックンロールキャット / 千歳ハル
  07 Good Answer / 千歳ハル
  08 Starlit Walk / 熊谷絵里
  09 廻る日輪 / 千歳ハル&熊谷絵里
  10 Purely all stay there / 熊谷絵里
  11 World Heroes / 千歳ハル&熊谷絵里

  [STAFF]
  Vocal 千歳ハル(cv,沼倉愛美)&熊谷絵里(cv,瀬戸麻沙美)
  Lyric 千歳ハル 熊谷絵里   Music Taishi (Electro.muster)

LOG
千歳ハル - Rock The Hero
Exact Audio Copy V1.0 beta 3 from 29. August 2011

EAC extraction logfile from 7. April 2015, 18:15

千歳ハル / Rock The Hero

Used drive  : PIONEER BD-RW   BDR-208M   Adapter: 2  ID: 0

Read mode               : Secure
Utilize accurate stream : Yes
Defeat audio cache      : Yes
Make use of C2 pointers : No

Read offset correction                      : 667
Overread into Lead-In and Lead-Out          : No
Fill up missing offset samples with silence : Yes
Delete leading and trailing silent blocks   : No
Null samples used in CRC calculations       : Yes
Used interface                              : Native Win32 interface for Win NT & 2000

Used output format : Internal WAV Routines
Sample format      : 44.100 Hz; 16 Bit; Stereo


TOC of the extracted CD

     Track |   Start  |  Length  | Start sector | End sector
    ---------------------------------------------------------
        1  |  0:00.00 |  3:48.20 |         0    |    17119  
        2  |  3:48.20 |  4:38.33 |     17120    |    38002  
        3  |  8:26.53 |  4:20.41 |     38003    |    57543  
        4  | 12:47.19 |  4:09.11 |     57544    |    76229  
        5  | 16:56.30 |  5:37.59 |     76230    |   101563  


Range status and errors

Selected range

     Filename G:\[EAC][130329] 音楽少女 千歳ハル&熊谷絵里 2 in Pack「Hero & Professor」(2wav+cue+log+TIF)\千歳ハル - Rock The Hero\千歳ハル - Rock The Hero.wav

     Peak level 100.0 %
     Extraction speed 5.9 X
     Range quality 100.0 %
     Copy CRC 842C281C
     Copy OK

No errors occurred


AccurateRip summary

Track  1  accurately ripped (confidence 3)  [0B24BB1E]  (AR v2)
Track  2  accurately ripped (confidence 3)  [3E3E2EBC]  (AR v2)
Track  3  accurately ripped (confidence 3)  [0D9C7962]  (AR v2)
Track  4  accurately ripped (confidence 3)  [84F09B4B]  (AR v2)
Track  5  accurately ripped (confidence 3)  [4BE0453C]  (AR v2)

All tracks accurately ripped

End of status report

---- CUETools DB Plugin V2.1.3

[CTDB TOCID: ATmFu4Kwq6_75YI3cVTei2RcnjE-] found, Submit result: ATmFu4Kwq6_75YI3cVTei2RcnjE- has been confirmed
[a167cc6e] (6/6) Accurately ripped


==== Log checksum 4D8EA8CC1DE18A3809BC64AE280B85F42F00692ED322A9B05BA44C0A421D387B ====

熊谷絵里 - Electronic Resonance
Exact Audio Copy V1.0 beta 3 from 29. August 2011

EAC extraction logfile from 7. April 2015, 17:44

熊谷絵里 / Electronic Resonance

Used drive  : PIONEER BD-RW   BDR-208M   Adapter: 2  ID: 0

Read mode               : Secure
Utilize accurate stream : Yes
Defeat audio cache      : Yes
Make use of C2 pointers : No

Read offset correction                      : 667
Overread into Lead-In and Lead-Out          : No
Fill up missing offset samples with silence : Yes
Delete leading and trailing silent blocks   : No
Null samples used in CRC calculations       : Yes
Used interface                              : Native Win32 interface for Win NT & 2000

Used output format : Internal WAV Routines
Sample format      : 44.100 Hz; 16 Bit; Stereo


TOC of the extracted CD

     Track |   Start  |  Length  | Start sector | End sector
    ---------------------------------------------------------
        1  |  0:00.00 |  6:53.28 |         0    |    31002  
        2  |  6:53.28 |  5:34.73 |     31003    |    56125  
        3  | 12:28.26 |  5:56.01 |     56126    |    82826  
        4  | 18:24.27 |  7:37.05 |     82827    |   117106  
        5  | 26:01.32 |  6:39.44 |    117107    |   147075  


Range status and errors

Selected range

     Filename G:\[EAC][130329] 音楽少女 千歳ハル&熊谷絵里 2 in Pack「Hero & Professor」(2wav+cue+log+TIF)\熊谷絵里 - Electronic Resonance\熊谷絵里 - Electronic Resonance.wav

     Peak level 100.0 %
     Extraction speed 6.3 X
     Range quality 100.0 %
     Copy CRC 63401686
     Copy OK

No errors occurred


AccurateRip summary

Track  1  accurately ripped (confidence 3)  [5C0D0726]  (AR v2)
Track  2  accurately ripped (confidence 3)  [1223B7E8]  (AR v2)
Track  3  accurately ripped (confidence 3)  [7B756035]  (AR v2)
Track  4  accurately ripped (confidence 3)  [832643EF]  (AR v2)
Track  5  accurately ripped (confidence 3)  [D027A8EE]  (AR v2)

All tracks accurately ripped

End of status report

---- CUETools DB Plugin V2.1.3

[CTDB TOCID: ANIuywse8TqJP6muo8kL7lGQHl8-] found, Submit result: ANIuywse8TqJP6muo8kL7lGQHl8- has been confirmed
[f9d5400e] (6/6) Accurately ripped


==== Log checksum EE55596A23E2B09CCA9DD85315C38944C5AC36F1F4437DBC3F93C67D43CF2652 ====

2nd Album「Perfect Free」
Exact Audio Copy V1.0 beta 3 from 29. August 2011

EAC extraction logfile from 9. April 2015, 19:55

音楽少女 / 2nd Album「Perfect Free」

Used drive  : PIONEER BD-RW   BDR-208M   Adapter: 2  ID: 0

Read mode               : Secure
Utilize accurate stream : Yes
Defeat audio cache      : Yes
Make use of C2 pointers : No

Read offset correction                      : 667
Overread into Lead-In and Lead-Out          : No
Fill up missing offset samples with silence : Yes
Delete leading and trailing silent blocks   : No
Null samples used in CRC calculations       : Yes
Used interface                              : Native Win32 interface for Win NT & 2000

Used output format : Internal WAV Routines
Sample format      : 44.100 Hz; 16 Bit; Stereo


TOC of the extracted CD

     Track |   Start  |  Length  | Start sector | End sector
    ---------------------------------------------------------
        1  |  0:00.00 |  6:03.58 |         0    |    27282  
        2  |  6:03.58 |  5:16.19 |     27283    |    51001  
        3  | 11:20.02 |  7:47.59 |     51002    |    86085  
        4  | 19:07.61 |  6:02.52 |     86086    |   113287  
        5  | 25:10.38 |  4:41.71 |    113288    |   134433  
        6  | 29:52.34 |  6:46.28 |    134434    |   164911  
        7  | 36:38.62 |  4:32.14 |    164912    |   185325  
        8  | 41:11.01 |  5:55.46 |    185326    |   211996  
        9  | 47:06.47 |  6:05.47 |    211997    |   239418  
       10  | 53:12.19 |  7:49.22 |    239419    |   274615  
       11  | 61:01.41 |  5:27.21 |    274616    |   299161  


Range status and errors

Selected range

     Filename G:\U2\音楽少女\[EAC][141127] 音楽少女 千歳ハル&熊谷絵里 2nd Album「Perfect Free」(予約限定盤)(wav+cue+log+png)\音楽少女 - 2nd Album「Perfect Free」.wav

     Peak level 98.4 %
     Extraction speed 7.9 X
     Range quality 100.0 %
     Copy CRC 06E1D0B2
     Copy OK

No errors occurred


AccurateRip summary

Track  1  accurately ripped (confidence 2)  [1976672D]  (AR v2)
Track  2  accurately ripped (confidence 2)  [54D09BC4]  (AR v2)
Track  3  accurately ripped (confidence 2)  [2F0C2AF4]  (AR v2)
Track  4  accurately ripped (confidence 2)  [832334D1]  (AR v2)
Track  5  accurately ripped (confidence 2)  [2FC6024D]  (AR v2)
Track  6  accurately ripped (confidence 2)  [154E9A1C]  (AR v2)
Track  7  accurately ripped (confidence 2)  [5131A9A1]  (AR v2)
Track  8  accurately ripped (confidence 2)  [2E67ABBE]  (AR v2)
Track  9  accurately ripped (confidence 2)  [E6C275B4]  (AR v2)
Track 10  accurately ripped (confidence 2)  [AC153B5F]  (AR v2)
Track 11  accurately ripped (confidence 2)  [8BB2AA0C]  (AR v2)

All tracks accurately ripped

End of status report

---- CUETools DB Plugin V2.1.3

[CTDB TOCID: b0Rfh1JoaKV4yjoyLoNeyYXWbrk-] found, Submit result: b0Rfh1JoaKV4yjoyLoNeyYXWbrk- has been confirmed
[24ea55c5] (8/9) Accurately ripped
[ff5b3150] (1/9) No match


==== Log checksum E72BF86DEE2C4C8BDD0DA3173803D6BE10052AC8DA6FF70C92E766317B04D965 ====


BK、音源分開打包,已加rr3%恢復記錄

允許轉載,不過請註明 Scanned and ripped by h_12439

載點
此帖售价 10 『♭』,已有 10 人购买 [记录] [购买]
购买后,将显示帖子中所有出售内容。
若发现会员采用欺骗的方法获取财富,请立刻举报,我们会对会员处以2-N倍的罚金,严重者封掉ID!
此段为出售的内容,购买后显示


新人第一次在這壇子發自抓
我覺得這系列不算同人碟所以就發這了
希望沒什麼問題
還請各路苣苣多多指教
如果會覺得我id很熟悉的人別懷疑
就是大家認識的那位同學(?)
最後想問個問題,自抓帖一定要拍照嗎?

補一張自抓/購證明



[ 此帖被h_12439在2015-05-07 03:18重新编辑 ]
4条评分『C』+1『∮』+10『D』+2『♭』+5
ferrari 『♭』 +5 ~ 2015-05-07
ferrari 『∮』 +10 投币支持 2015-05-07
ferrari 『C』 +1 资源帖奖励 2015-05-07
ferrari 『D』 +2 资源帖奖励 2015-05-07
离线ferrari
发帖
6967
『♭』
3419
『D』
7
『♥』
273
『∮』
74
『C』
61
只看该作者 沙发  发表于: 2015-04-28
欢迎入驻BCD!

自抓一定要拍照的,而且需要和论坛背景或者自己的ID纸条一起合拍,详细看这:http://bbs.big-cd.com/read-htm-tid-14086.html


发帖辛苦了。
离线lanech
发帖
1165
『♭』
17605
『D』
286
『♥』
234
『∮』
1492
『C』
190
只看该作者 板凳  发表于: 2015-04-28
啊,想起来了,之前看了这个OVA动画来着,难怪觉得人设这么眼熟
离线starcat
发帖
2210
『♭』
14503
『D』
0
『♥』
12
『∮』
0
『C』
0
只看该作者 地板  发表于: 2015-04-28
照片不是有五张吗?
离线h_12439
发帖
76
『♭』
509
『D』
7
『♥』
5
『∮』
52
『C』
6
只看该作者 4坟墓  发表于: 2015-04-28
回 3楼(starcat) 的帖子
starcat:照片不是有五张吗?[表情]  (2015-04-28 20:49) 

位置解說↓
(2 in Pack的其中一張CD)  (2 in Pack的外盒) (2 in Pack的另一張CD)
                          (2專的CD) (2專的特典月曆)
离线wren84amd
发帖
476
『♭』
12464
『D』
0
『♥』
104
『∮』
0
『C』
0
只看该作者 5 希腊  发表于: 2015-04-28
才发现h酱入驻了bcd...
期待h酱其它的自x碟~
[ 此帖被wren84amd在2015-04-28 23:32重新编辑 ]
离线deep
发帖
1057
『♭』
5464
『D』
16
『♥』
29
『∮』
84
『C』
14
只看该作者 6天桥  发表于: 2015-04-30
封面不错,,话说签名好丑。。跟我有的一拼233 (照相技术也好差,都没对上焦orz,是设备原因?

楼主留言:

同學你是來聽音樂的還是來看照片的233
難不成我要用單眼大砲來照嗎?
字醜還真對不住了,程序猿摸鍵盤時間居多

[ 此帖被deep在2015-04-30 21:04重新编辑 ]
离线echon
发帖
123
『♭』
1355
『D』
0
『♥』
1
『∮』
0
『C』
2
只看该作者 7奶奶的大腿  发表于: 2015-05-01
看起來好像挺棒的
支持阿
只是我還在存分買別的
离线sonicspeed
发帖
1713
『♭』
184
『D』
44
『♥』
126
『∮』
237
『C』
39
只看该作者 8蓝的尾巴  发表于: 2015-05-01
这帖子是不是和天使的那个是一样的?

楼主留言:

內容都一樣,沒有不同

离线末世殘炎
发帖
253
『♭』
1350
『D』
18
『♥』
19
『∮』
134
『C』
20
只看该作者 ⑨十二号公路  发表于: 2015-05-01
音樂少女系列owo
离线g_njl
发帖
2668
『♭』
3
『D』
42
『♥』
196
『∮』
180
『C』
194
只看该作者 10楼 发表于: 2015-05-01
哇~h大不玩黄油跑这边来发片啦【shenmegui

楼主留言:

最近在打 サノバウィッチ 呢XD

离线东乡毅
发帖
107
『♭』
169
『D』
0
『♥』
2
『∮』
0
『C』
0
只看该作者 11楼 发表于: 2015-05-06
Re:[合集][EAC]  相關CDx3 (3wav+cue+log+png)
音楽少女么。。。
离线awert1958
发帖
2
『♭』
5
『D』
0
『♥』
1
『∮』
0
『C』
0
只看该作者 12楼 发表于: 2015-07-11
感   謝 分     享
离线hplo2r
发帖
2
『♭』
111
『D』
0
『♥』
6
『∮』
0
『C』
0
只看该作者 13楼 发表于: 2016-07-11
最近開始听 好好听~
离线hahaha191110
发帖
5
『♭』
0
『D』
0
『♥』
0
『∮』
0
『C』
0
只看该作者 14楼 发表于: 2016-08-02
謝謝你啊

謝謝

我會好好珍藏的喔
离线www9
发帖
6
『♭』
20
『D』
0
『♥』
0
『∮』
0
『C』
0
只看该作者 15楼 发表于: 04-11
感謝樓主  此乃好物
离线aa900410aa
发帖
5
『♭』
3
『D』
0
『♥』
0
『∮』
0
『C』
0
只看该作者 16楼 发表于: 05-12
感謝大大!! 找了好久
离线m83831652
发帖
2
『♭』
4
『D』
0
『♥』
0
『∮』
0
『C』
0
只看该作者 17楼 发表于: 05-29
感謝,資源不太好找
离线gusha
发帖
25
『♭』
213
『D』
0
『♥』
0
『∮』
0
『C』
0
只看该作者 18楼 发表于: 07-10
啊啊啊啊!感謝大大