论坛风格切换永遠の窄版
  • 1790阅读
  • 29回复

[自抓][合集]DECO*27 Album*5 EP*3(wav+cue+bk+iso) [复制链接]

上一主题 下一主题
离线熊桑
 
发帖
162
『♭』
737
『D』
24
『♥』
25
『∮』
159
『C』
15
只看楼主 倒序阅读 使用道具 楼主  发表于: 2014-09-29
— 本帖被 ferrari 执行加亮操作(2014-11-04) —

《相愛性理論》(2010/4/21)
Disk 1
1. 相愛性理論
2. ハルイチ。
3. 愛+K=aKi
4. 心壊サミット
5. 愛言葉
6. 恋様シート
7. 僕みたいな君、君みたいな僕。
8. キミ以上、ボク未満。
9. 好きよ好きよも好きのうち
10. 罪と罰
11. "bye-bye" by my 愛
12. 愛 think so,
13. 二息歩行        試聴する
14. 一人ぼっちで二人きり
15. 愛 think so, feat. とぴ
16. ハルイチ。 (kous Remix)
17. 愛言葉 (sasakure.UK Remix)
18. 相愛性理論 (Treow Remix)
Disk 2
1. 相愛性理論
2. 二息歩行
3. 愛 think so, feat. とぴ
4. No You, No Me

パラヴレルワールド(2010/7/19)
1. Lovrel
2. リノリウム
3. モザイクロール
4. 誰だって「誰だっけ」
5. 弱虫モンブラン
6. 僕の名前は
7. Lovrell

愛迷エレジー(2010/12/15)
Disk 1
1. entree
2. モザイクロール feat. marina
3. ショコラビーツ feat. 初音ミク
4. トリノアイウタ feat. GUMI
5. 愛迷エレジー feat. marina
6. 飴模様 feat. GUMI
7. 未来世 feat.とぴ
8. ベリーブルー (DECO*27 Vocal Mix)
9. 弱虫モンブラン feat. marina
10. outree
11. 愛言葉 (sasakure.UK Sweets Remix) feat. mirto
12. 弱虫モンブラン (ELECTROCUTICA White Remix) feat. GUMI
13. モザイクロール (kous DR Remix) feat. 初音ミク
14. むかしむかしのきょうのぼく feat. 初音ミク
Disk 2
1. 弱虫モンブラン feat. GUMI [Music Video]
2. モザイクロール feat. GUMI [Music Video]
3. トリノアイウタ feat. GUMI [Music Video]
4. 愛迷エレジー feat. marina [Music Video]
ライトラグ(2011/7/27)
Disk 1
1. ライトラグ
2. 砂時計
3. ライトラグ -Instrumental-
4. 砂時計 -Instrumental-
Disk 2
1. ライトラグ -Music Video-
2. ペダルハート -Music Video-
エゴママ/恋距離遠愛(2011/12/7)
1. エゴママ
2. 恋距離遠愛
3. ダミーダミー
4. エゴママ - Instrumental
5. 恋距離遠愛 - Instrumental
6. ライトラグ (TeddyLoid Remix)
7. ライトラグ (TeddyLoid Space Fire Remix)

ゆめゆめ(2012/4/18)

Disk 1
1. ゆめゆめ

2. ゆめゆめ (Instrumental)

3. ゆめゆめ (sasakure.UK ElectricSheep Remix)

4. 二息歩行 (fhana Quantum Remix)

5. 愛言葉 (i‐dep 2467 Remix)

Disk 2

1. ゆめゆめ (「初音ミク and Future Stars Project mirai」オープニングムービー)
2. ゆめゆめ (アニメーションミュージックビデオ)

ラブ カレンダー(2012/7/25)
Disk 1
1. 1+1=1 feat.とぴ

2. RT feat.とぴ

3. 甘宿り feat.中川翔子

4. エゴママ feat.marina -Album Mix-

5. ライトラグ feat.とぴ -Album Mix-

6. 27 -DECO*27 Vocal Mix-

7. 砂時計 feat.とぴ -Album Mix-

8. お留守番人 feat.marina

9. 恋距離遠愛 feat.とぴ -Album Mix-

10. 帰想本能 feat.悠木碧

11. フタリ座 feat.とぴ

12. 声声 feat.とぴ

13. 愛言葉 feat.とぴ -Piano Parallel Mix-
Disk 2

1. ライトラグ feat.とぴ -Music Video-

2. エゴママ feat.marina -Music Video-

3. 恋距離遠愛 feat.とぴ -Music Video-

4. 甘宿り feat.中川翔子 -Music Video-

5. 甘宿り feat.中川翔子 -Music Video- (Rainy Quartet Ver.)

6. 帰想本能 feat.悠木碧 -Music Video-

7. 砂時計 feat.とぴ -Live Clip-
8. RECO*27 -Documentary & Commentary-

Conti New(2014/3/26)
Disk 1
1. ストリーミングハート feat. 初音ミク
2. おじゃま虫feat. 初音ミク
3. 毒占欲feat. 初音ミク
4. Lonely Shit feat. 初音ミク
5. Starlight Girl feat. 初音ミク
6. たんこぶベイベfeat. 初音ミク
7. 大掃除feat. 初音ミク
8. 音偽バナシfeat. 初音ミク
9. アンチビートfeat. 初音ミク
10. 妄想税feat. 初音ミク
11. an feat. 初音ミク
12. 8月31日feat. 初音ミク
Disk 2
1. MV「妄想税 feat. 初音ミク」
2. MV「音偽バナシ feat. 初音ミク」
3. MV「愛迷エレジー feat. 初音ミク」
4. MV「大掃除 feat. 初音ミク」
5. MV「毒占欲 feat. 初音ミク」

LOG:
Exact Audio Copy V1.0 beta 3 from 29. August 2011

EAC 抓取日志文件从28. 九月 2014, 21:16

DECO*27 / 相愛性理論

使用驱动器 :MATSHITADVD-RAM UJ8B0 Adapter: 0 ID: 0

读取模式 : 可靠Secure

使用精确流 : 是

清空音频缓存 : 否

使用 C2 指示器 : 否

读取偏移校正: : 102

读取 Lead-In 和 Lead-Out : 否

用静音填充抓取中丢失偏移的采样 : 是

去除首尾静音块 : 否

在CRC 计算中使用了空样本 : 是

已用接口 : Win NT 及 2000 本地 Win32 接口

所用输出模式: : 内部 WAV 函数

样本格式 : 44.100 Hz; 16 Bit; 立体声

已抓取 CD 的 TOC

音轨 | 起始 | 长度 | 起始扇区 | 结束扇区

--------------------------------------------

1 | 0:00.00 | 4:27.64 | 0 | 20088

2 | 4:27.64 | 2:55.32 | 20089 | 33245

3 | 7:23.21 | 3:05.72 | 33246 | 47192

4 | 10:29.18 | 2:48.58 | 47193 | 59850

5 | 13:18.01 | 4:24.30 | 59851 | 79680

6 | 17:42.31 | 3:32.49 | 79681 | 95629

7 | 21:15.05 | 4:27.64 | 95630 | 115718

8 | 25:42.69 | 3:43.13 | 115719 | 132456

9 | 29:26.07 | 3:15.54 | 132457 | 147135

10 | 32:41.61 | 3:01.64 | 147136 | 160774

11 | 35:43.50 | 3:35.67 | 160775 | 176966

12 | 39:19.42 | 3:59.00 | 176967 | 194891

13 | 43:18.42 | 3:03.38 | 194892 | 208654

14 | 46:22.05 | 3:26.68 | 208655 | 224172

15 | 49:48.73 | 4:00.31 | 224173 | 242203

16 | 53:49.29 | 3:10.22 | 242204 | 256475

17 | 56:59.51 | 4:24.69 | 256476 | 276344

18 | 61:24.45 | 4:42.07 | 276345 | 297501

范围状态及错误

已选择范围

文件名 C:\Users\trctrc\Desktop\新建文件夹\DECOx27 - 相愛性理論.wav

峰值电平 99.6 %

抓取速度 3.2 X

范围质量 100.0 %

复制 CRC 7B63D8EE

复制成功

没有错误发生

状态报告结尾

==== 记录校验日志 CB6CB06C398385FE407ACE3D51C4F9FF3723DD665325ED22C5F2EE03AE2FD067 ====

BK预览:

自购证明:

自传证明:

均为整轨WAV+CUE,均带初回盘ISO文件,全BK

08-12COLLECTION不在身边,之外的DECO单人碟都传了一下。

应该不用多做介绍了吧。。算是特别喜欢的元老级P主~也是把我变成GUMI废的主要因素之一

GUMI曲二息步行(你什么都没有看到),马赛克卷,弱虫,与marina合作的爱迷,初音曲爱言叶,从前音,到最近的百万曲妄想税。

无一不让人有LOOOOP到天明的冲动。

水管上传不易,且收且珍惜。网上档很多,实在要转请知会一声。

(档坏了或有问题请PM,可能回得慢不过肯定会看的。)

下载

限制 800b or 13C or 6D

此帖售价 20 『♭』,已有 20 人购买 [记录] [购买]
购买后,将显示帖子中所有出售内容。
若发现会员采用欺骗的方法获取财富,请立刻举报,我们会对会员处以2-N倍的罚金,严重者封掉ID!
此段为出售的内容,购买后显示

[ 此帖被熊桑在2014-09-29 16:12重新编辑 ]
6条评分『♥』+2『∮』+56『D』+8『♭』+7
rorikon 『∮』 +6 以大腿的名义 2014-10-04
rorikon 『∮』 +50 又帅又强 2014-10-04
芙蘭朵露 『D』 +8 2014-10-04
ferrari 『♥』 +1 (´・ω・`) 2014-09-30
rorikon 『♭』 +7 投币支持 2014-09-30
rorikon 『♥』 +1 又帅又强 2014-09-30
离线远野志贵
发帖
231
『♭』
2539
『D』
0
『♥』
8
『∮』
0
『C』
0
只看该作者 沙发  发表于: 2014-09-29
來的早不如來的巧
离线kazuma
发帖
451
『♭』
9524
『D』
0
『♥』
20
『∮』
10
『C』
11
只看该作者 板凳  发表于: 2014-09-29
DECO*27为GUMI的推广有着无可替代的功劳。

ps.“且收且珍惜”前面应该加一句“下载莫相忘” 233
离线茄子党
发帖
907
『♭』
1192
『D』
5
『♥』
29
『∮』
31
『C』
5
只看该作者 地板  发表于: 2014-09-29
800B的限制略低。不过合集超赞!!
离线s2p1d_b0i
发帖
179
『♭』
0
『D』
0
『♥』
24
『∮』
0
『C』
0
只看该作者 4坟墓  发表于: 2014-09-29
用户被禁言,该主题自动屏蔽!
离线lanech
发帖
1071
『♭』
16407
『D』
249
『♥』
204
『∮』
1253
『C』
160
只看该作者 5 希腊  发表于: 2014-09-29
二息步行是miku曲

路过支持下,虽然都是收过的碟
离线candydre
发帖
1811
『♭』
5405
『D』
6
『♥』
108
『∮』
43
『C』
16
只看该作者 6天桥  发表于: 2014-09-29
投幣支持
聽vocaloid的時候已經是GUMI全盛期了...
舔bk
离线sonicspeed
发帖
1683
『♭』
66
『D』
39
『♥』
120
『∮』
202
『C』
34
只看该作者 7奶奶的大腿  发表于: 2014-09-29
全都收过,路过支持,楼主的帖子编辑的很棒,今后发贴请让我以此做个参考
离线熊桑
发帖
162
『♭』
737
『D』
24
『♥』
25
『∮』
159
『C』
15
只看该作者 8蓝的尾巴  发表于: 2014-09-29
回 5楼(lanech) 的帖子
lanech:二息步行是miku曲[表情]
路过支持下,虽然都是收过的碟[表情]  (2014-09-29 10:46) 

脸滑 不要在意
离线熊桑
发帖
162
『♭』
737
『D』
24
『♥』
25
『∮』
159
『C』
15
只看该作者 ⑨十二号公路  发表于: 2014-09-29
回 3楼(茄子党) 的帖子
茄子党:800B的限制略低。不过合集超赞!! (2014-09-29 09:58) 

^^造福群众攒攒人品
离线alicat
发帖
748
『♭』
1802
『D』
8
『♥』
43
『∮』
41
『C』
9
只看该作者 10楼 发表于: 2014-09-29
..想起了以前开的坑...
离线hkm3026
发帖
314
『♭』
3485
『D』
0
『♥』
1
『∮』
0
『C』
0
只看该作者 11楼 发表于: 2014-09-29
DECO*27的專輯  淚流滿面
离线zqh9843
发帖
817
『♭』
3665
『D』
0
『♥』
11
『∮』
0
『C』
1
只看该作者 12楼 发表于: 2014-09-30
感谢咯!!!
终于有了DECO27的相爱性理论
离线luckylucky2
发帖
634
『♭』
617
『D』
5
『♥』
21
『∮』
20
『C』
5
只看该作者 13楼 发表于: 2014-10-01
這BK的風格還真是特別啊~
离线月结
发帖
1594
『♭』
86
『D』
32
『♥』
120
『∮』
182
『C』
37
只看该作者 14楼 发表于: 2014-10-03
现在看到碟子也不大想收了.....
不过还是感谢楼主的分享w
DECO*27的曲子确实赞
离线压路机
发帖
792
『♭』
3198
『D』
3
『♥』
99
『∮』
24
『C』
34
只看该作者 15楼 发表于: 2014-10-03
deco的都比较合胃口
离线sofaria
发帖
513
『♭』
4422
『D』
3
『♥』
23
『∮』
20
『C』
3
只看该作者 16楼 发表于: 2014-10-03
谢谢太太低分设置…我就是被你造福的人类之一
离线xmonkey
发帖
228
『♭』
582
『D』
6
『♥』
9
『∮』
23
『C』
6
只看该作者 17楼 发表于: 2014-10-05
恩,lz造福人类了
离线暴走蜗牛
发帖
688
『♭』
2872
『D』
96
『♥』
264
『∮』
664
『C』
122
只看该作者 18楼 发表于: 2014-10-09
DECO的碟子到现在印象最深的依然是爱迷……之后的曲子……说实话都没大感想
离线hkm3026
发帖
314
『♭』
3485
『D』
0
『♥』
1
『∮』
0
『C』
0
只看该作者 19楼 发表于: 2014-10-16
DECO*27大愛!!