论坛风格切换永遠の窄版
  • 1093阅读
  • 15回复

[自抓][130427]明鏡止水-まふまふ(wav+cue) [复制链接]

上一主题 下一主题
离线tohmafu
 
发帖
56
『♭』
293
『D』
4
『♥』
0
『∮』
20
『C』
4
只看楼主 倒序阅读 使用道具 楼主  发表于: 2014-06-25
— 本帖被 alastor 执行加亮操作(2014-06-26) —




>>简介
―――”夢の日記”は開かれた―――


歌ってみたで活躍する「まふまふ」のDTMerとしてのオリジナルVOCALOIDアルバムが登場!
【仇返しシンドローム】、【緑青色の憂鬱】を始めとした10曲を収録。

多彩な才能を発揮する”まふまふワールド”を体感せよ!



>>収録曲
01.ヤクビョウガミ
02.グッドスリープコンソール
03.仇返しシンドローム
04.後書きの始まり、虚無の目次
05.緑青色の憂鬱
06.かくしごと
07.カラクリ遺伝子脳
08.夕暮れ蝉日記
09.明鏡止水
10.透明パレット




>>试听
sm20653453


>>LOG

Exact Audio Copy V1.0 beta 3 from 29. August 2011


EAC 抓取日志文件从16. 五月 2014, 20:16


まふまふ / 明鏡止水


使用驱动器  :ASUS    DVD-E818A7TG   Adapter: 1  ID: 0


读取模式      : 可靠Secure
使用精确流     : 是
清空音频缓存    : 否
使用 C2 指示器 : 否


读取偏移校正:               : 0
读取 Lead-In 和 Lead-Out : 是
用静音填充抓取中丢失偏移的采样       : 是
去除首尾静音块               : 否
在CRC 计算中使用了空样本       : 是
已用接口                  : Win NT 及 2000 本地 Win32 接口


所用输出模式: : 内部 WAV 函数
样本格式    : 44.100 Hz; 16 Bit; 立体声




已抓取 CD 的 TOC


     音轨 |    起始    |    长度    |  起始扇区  |  结束扇区  
    --------------------------------------------
      1 |  0:00.00 |  3:44.03 |      0 |  16802
      2 |  3:44.03 |  3:31.08 |  16803 |  32635
      3 |  7:15.11 |  3:00.56 |  32636 |  46191
      4 | 10:15.67 |  2:48.38 |  46192 |  58829
      5 | 13:04.30 |  3:39.12 |  58830 |  75266
      6 | 16:43.42 |  3:58.18 |  75267 |  93134
      7 | 20:41.60 |  3:00.66 |  93135 | 106700
      8 | 23:42.51 |  3:37.59 | 106701 | 123034
      9 | 27:20.35 |  3:51.65 | 123035 | 140424
     10 | 31:12.25 |  4:07.17 | 140425 | 158966




范围状态及错误


已选择范围


     文件名 D:\我的文档\MY MUSIC\まふまふ\CD\まふまふ - 明鏡止水.wav


     可疑位置 0:35:19


     峰值电平 97.7 %
     抓取速度 2.7 X
     范围质量 99.9 %
     复制 CRC 08095FF0
     复制结束


出现错误


状态报告结尾


==== 记录校验日志 35BC7947694FA3A26E162635B3CB6F2349386A5738049C8193AE98831E6A689B ====



>>自抓证明











下载
限制100b,5C或者1D积分(满足其一即可)
这里填入您的注意事项或要求



此帖售价 10 『♭』,已有 12 人购买 [记录] [购买]
购买后,将显示帖子中所有出售内容。
若发现会员采用欺骗的方法获取财富,请立刻举报,我们会对会员处以2-N倍的罚金,严重者封掉ID!
此段为出售的内容,购买后显示
[ 此帖被ferrari在2014-06-25 21:09重新编辑 ]
本主题包含附件,请 登录 后查看, 或者 注册 成为会员
5条评分『♥』+1『C』+1『∮』+5『D』+1『♭』+1
alastor 『C』 +1 资源帖奖励 2014-06-26
alastor 『∮』 +5 资源帖奖励 2014-06-26
alastor 『D』 +1 资源帖奖励 2014-06-26
rorikon 『♥』 +1 投币支持 2014-06-25
ferrari 『♭』 +1 你是好人 2014-06-25
离线ferrari
发帖
6967
『♭』
3419
『D』
7
『♥』
273
『∮』
74
『C』
61
只看该作者 沙发  发表于: 2014-06-25
结尾位置似乎出错了...

嘛,影响应该不大...
2条评分『♭』+2
wolf_bc 『♭』 +1 是指log那個“可疑位置”?求科普~ 2014-06-26
alastor 『♭』 +1 明显不是结尾…… 2014-06-25
离线tohmafu
发帖
56
『♭』
293
『D』
4
『♥』
0
『∮』
20
『C』
4
只看该作者 板凳  发表于: 2014-06-25
错误就是在结尾啊 之前已经重抓过几次了  mafu的CD都这样没办法
本帖提到的人: @alastor
离线alastor
发帖
2615
『♭』
4426
『D』
11
『♥』
148
『∮』
62
『C』
31
只看该作者 地板  发表于: 2014-06-26
回 tohmafu 的帖子
tohmafu:错误就是在结尾啊 之前已经重抓过几次了  mafu的CD都这样没办法  (2014-06-25 23:37) 

我错了……眼拙没办法
离线kazuma
发帖
459
『♭』
10581
『D』
0
『♥』
20
『∮』
10
『C』
11
只看该作者 4坟墓  发表于: 2014-06-26
bright, mirror, stop, water, 请到天朝来当英语老师!
离线espressora
发帖
531
『♭』
2810
『D』
31
『♥』
53
『∮』
215
『C』
30
只看该作者 5 希腊  发表于: 2014-06-26
马夫的V曲的调子都很高啊~不过蛮不错听的
离线wolf_bc
发帖
1394
『♭』
13389
『D』
4
『♥』
66
『∮』
19
『C』
6
只看该作者 6天桥  发表于: 2014-06-26
很燃我喜歡~而且pv的繪師很贊~
离线leo821024
发帖
342
『♭』
3955
『D』
6
『♥』
8
『∮』
37
『C』
6
只看该作者 7奶奶的大腿  发表于: 2014-06-27
感覺每首PV的感覺都很鮮明,很獨特
离线鴉殺
发帖
271
『♭』
1355
『D』
0
『♥』
4
『∮』
0
『C』
0
只看该作者 8蓝的尾巴  发表于: 2014-06-28
看到马夫就滚过来了 然后一看发售日期 居然当初给忘记了Orz
离线lmfnono
发帖
118
『♭』
731
『D』
0
『♥』
4
『∮』
0
『C』
0
只看该作者 ⑨十二号公路  发表于: 2014-07-10
忽然看到 过来洗版
离线donghaiaiyi
发帖
113
『♭』
2549
『D』
16
『♥』
25
『∮』
95
『C』
16
只看该作者 10楼 发表于: 2014-07-11
看见标题就滚进来了 只爪辛苦
离线tanghaoji
发帖
4
『♭』
-3
『D』
0
『♥』
1
『∮』
0
『C』
0
只看该作者 11楼 发表于: 2014-11-17
IA大爱,洗脑循环ing
离线工业文明
发帖
2929
『♭』
837
『D』
4
『♥』
417
『∮』
38
『C』
20
只看该作者 12楼 发表于: 2015-02-21
来听听看,
离线tommy060398
发帖
7
『♭』
5
『D』
0
『♥』
1
『∮』
0
『C』
0
只看该作者 13楼 发表于: 2015-05-13
我是來考古的QAQ
离线angus404040
发帖
89
『♭』
1695
『D』
4
『♥』
4
『∮』
18
『C』
4
只看该作者 14楼 发表于: 2015-05-16
這P的曲子不錯...收下了..
离线as56220
发帖
17
『♭』
98
『D』
0
『♥』
0
『∮』
0
『C』
0
只看该作者 15楼 发表于: 08-15
這張專輯真心推薦~~