论坛风格切换永遠の窄版
  • 3064阅读
  • 53回复

[自抓][140514] H△G(ハグ) - f分の1ゆらぎ (wav+cue+bk) [复制链接]

上一主题 下一主题
离线ferrari
 
发帖
6967
『♭』
3419
『D』
7
『♥』
273
『∮』
74
『C』
61
只看楼主 倒序阅读 使用道具 楼主  发表于: 2014-05-17




2.5次元の歌姫 Chiho 率いる H△G (ハグ) が、
満を持してベスト盤的なデビューアルバムを発売!!





(収録曲)
01. 星見る頃を過ぎても
02. 桜の唄
03. 少女たちの終わらない夜
04. 3月の物語
05. カラフル
06. ナズナ
07. Nine Point Eight   (Original Artist : Mili)
08. パラロジクスノート
09. あの夏、僕らは。
10. 陽のあたる場所




初めてニコニコ動画に投稿した作品が、
ニコニコインディーズ・デイリーチャートで【第1位】を記録!!

アマゾン限定で発売したスプリットアルバムは、
アマゾン・デイリー予約チャートで【第1位】を獲得!!

デビューEP は国内最大のインディーズサイト
indiesmusic.com 週間チャートで【第1位】を獲得!!



アマゾン限定で発売し即完した
幻のスプリットアルバム「H△G × Mili」から、
ニコニコ動画や YouTubeなど動画サイトを中心に
話題となっている代表曲「星見る頃を過ぎても」

国内最大級のインディーズ通販サイト indiesmusic.com の
週間セールスチャートで1位を獲得した、
話題のデビューシングル表題曲「少女たちの終わらない夜」

さらに、Vo.Chiho が初めて作詞作曲した新曲なども収録した
超待望のデビューアルバム!!




官网:http://hag-official.jp/

主唱声音很棒!很久没遇到这样一张能一口气听完的专辑了...

嗯总之推荐~




下载:
本部分内容设定了隐藏,需要回复后才能看到

密码:
限制500b,3C或者1D积分(满足其一即可)
无损版本禁止转载



此帖售价 15 『♭』,已有 35 人购买 [记录] [购买]
购买后,将显示帖子中所有出售内容。
若发现会员采用欺骗的方法获取财富,请立刻举报,我们会对会员处以2-N倍的罚金,严重者封掉ID!
此段为出售的内容,购买后显示







然后VocalDB标记过的320K aac版本(转载请注明)

标记在第二首曲目'桜の唄'中

下载
本部分内容设定了隐藏,需要回复后才能看到




[ 此帖被ferrari在2014-05-17 15:29重新编辑 ]
5条评分『♥』+1『C』+1『∮』+9『D』+1『♭』+5
rorikon 『♥』 +1 以大腿的名义 2014-05-19
rorikon 『∮』 +9 4+1+2+2 2014-05-19
rorikon 『D』 +1 2014-05-19
rorikon 『C』 +1 资源帖奖励 2014-05-19
rorikon 『♭』 +5 2网盘 2014-05-19
离线rorikon
发帖
5718
『♭』
2971
『D』
17
『♥』
277
『∮』
124
『C』
45
只看该作者 沙发  发表于: 2014-05-17
恩  前排占位支持
离线ferrari
发帖
6967
『♭』
3419
『D』
7
『♥』
273
『∮』
74
『C』
61
只看该作者 板凳  发表于: 2014-05-17
补个照片和log




  1. Exact Audio Copy V1.0 beta 3 from 29. August 2011
  2. EAC 抓取日志文件从17. 五月 2014, 13:00
  3. H△G / f分の1ゆらぎ
  4. 使用驱动器  :SONY    DVD RW AD-7260S   Adapter: 2  ID: 0
  5. 读取模式      : 可靠Secure
  6. 使用精确流     : 是
  7. 清空音频缓存    : 是
  8. 使用 C2 指示器 : 否
  9. 读取偏移校正:               : 48
  10. 读取 Lead-In 和 Lead-Out : 否
  11. 用静音填充抓取中丢失偏移的采样       : 是
  12. 去除首尾静音块               : 否
  13. 在CRC 计算中使用了空样本       : 是
  14. 已用接口                  : Win NT 及 2000 本地 Win32 接口
  15. 所用输出模式: : 内部 WAV 函数
  16. 样本格式    : 44.100 Hz; 16 Bit; 立体声
  17. 已抓取 CD 的 TOC
  18.      音轨 |    起始    |    长度    |  起始扇区  |  结束扇区  
  19.     --------------------------------------------
  20.       1 |  0:00.00 |  5:25.38 |      0 |  24412
  21.       2 |  5:25.38 |  4:31.43 |  24413 |  44780
  22.       3 |  9:57.06 |  4:08.37 |  44781 |  63417
  23.       4 | 14:05.43 |  5:00.07 |  63418 |  85924
  24.       5 | 19:05.50 |  4:43.45 |  85925 | 107194
  25.       6 | 23:49.20 |  4:56.12 | 107195 | 129406
  26.       7 | 28:45.32 |  3:07.47 | 129407 | 143478
  27.       8 | 31:53.04 |  4:26.13 | 143479 | 163441
  28.       9 | 36:19.17 |  3:53.34 | 163442 | 180950
  29.      10 | 40:12.51 |  4:30.01 | 180951 | 201201
  30. 范围状态及错误
  31. 已选择范围
  32.      文件名 C:\Users\Debug\Desktop\H_G\H△G - f分の1ゆらぎ.wav
  33.      峰值电平 100.0 %
  34.      抓取速度 3.8 X
  35.      范围质量 100.0 %
  36.      复制 CRC F222A8FF
  37.      复制成功
  38. 没有错误发生
  39. 状态报告结尾



离线candydre
发帖
1826
『♭』
5361
『D』
6
『♥』
108
『∮』
43
『C』
16
只看该作者 地板  发表于: 2014-05-17
好快www先下载听这版Nine Point Eight收BK
我等后天ウサギトネコ萌狗一起.....  月底还要出门
[ 此帖被candydre在2014-05-17 17:25重新编辑 ]
离线morven
发帖
1380
『♭』
934
『D』
67
『♥』
117
『∮』
359
『C』
147
只看该作者 4坟墓  发表于: 2014-05-17
拉拉利大法好
离线xmonkey
发帖
228
『♭』
582
『D』
6
『♥』
9
『∮』
23
『C』
6
只看该作者 5 希腊  发表于: 2014-05-17
超爱HAG!果断要收下的啊!
不过不知道Vocal DB是否会对音频有损伤呢?
顺便推荐楼主使用百度网盘加密分享,这样的话发的资源不会被搜索到。
[ 此帖被xmonkey在2014-05-17 17:24重新编辑 ]
离线ferrari
发帖
6967
『♭』
3419
『D』
7
『♥』
273
『∮』
74
『C』
61
只看该作者 6天桥  发表于: 2014-05-17
回 xmonkey 的帖子
xmonkey:超爱HAG!果断要收下的啊!
不过不知道Vocal DB是否会对音频有损伤呢?
顺便推荐楼主使用百度网盘加密分享,这样的话发的资源不会被搜索到。 (2014-05-17 17:13) 

对音频本身当然有影响了,不然怎么嵌入信息..

不过通常情况下人耳是听不出来的,不然这套算法也就无意义了。
离线月结
发帖
1608
『♭』
185
『D』
32
『♥』
122
『∮』
182
『C』
38
只看该作者 7奶奶的大腿  发表于: 2014-05-17
回 5楼(xmonkey) 的帖子
xmonkey:超爱HAG!果断要收下的啊!
不过不知道Vocal DB是否会对音频有损伤呢?
顺便推荐楼主使用百度网盘加密分享,这样的话发的资源不会被搜索到。 (2014-05-17 17:13) 

嫌对音频音质有影响就不要下载呢,就去自己买233
我们要相信法拉利的产品的质量,先下下来听听看呗233
离线alicat
发帖
748
『♭』
1802
『D』
8
『♥』
43
『∮』
41
『C』
9
只看该作者 8蓝的尾巴  发表于: 2014-05-17
没听过呢..
下来试试~~感谢法拉利~
离线ferrari
发帖
6967
『♭』
3419
『D』
7
『♥』
273
『∮』
74
『C』
61
只看该作者 ⑨十二号公路  发表于: 2014-05-17
回 candydre 的帖子
candydre:好快www先下载听这版Nine Point Eight收BK
我等后天ウサギトネコ萌狗一起.....  月底还要出门[表情]  (2014-05-17 16:58) 

这次萌购好快,13号海外到货,今天就到我手里了...

团发.
1条评分『♭』+1
morven 『♭』 +1 团发略吊…… 2014-05-17
离线裁魂溆
发帖
2937
『♭』
2200
『D』
9
『♥』
58
『∮』
11
『C』
11
只看该作者 10楼 发表于: 2014-05-17

总之马克先!(为何我的流量总是用得那么快
1条评分『♭』+1
ferrari 『♭』 +1 SBD好久不见.. 2014-05-17
离线rorikon
发帖
5718
『♭』
2971
『D』
17
『♥』
277
『∮』
124
『C』
45
只看该作者 11楼 发表于: 2014-05-17
清浦应该会很喜欢这张
离线ferrari
发帖
6967
『♭』
3419
『D』
7
『♥』
273
『∮』
74
『C』
61
只看该作者 12楼 发表于: 2014-05-17
回 rorikon 的帖子
rorikon:清浦应该会很喜欢这张[表情] [表情]  (2014-05-17 21:33) 

应该买了吧233

@911  
本帖提到的人: @911
离线candydre
发帖
1826
『♭』
5361
『D』
6
『♥』
108
『∮』
43
『C』
16
只看该作者 13楼 发表于: 2014-05-18
回 ferrari 的帖子
ferrari:这次萌购好快,13号海外到货,今天就到我手里了...
团发. (2014-05-17 20:17) 

果然是偷跑wwwwwww
离线压路机
发帖
792
『♭』
3198
『D』
3
『♥』
99
『∮』
24
『C』
34
只看该作者 14楼 发表于: 2014-05-18
拉拉利居然听少女系列歌
离线ferrari
发帖
6967
『♭』
3419
『D』
7
『♥』
273
『∮』
74
『C』
61
只看该作者 15楼 发表于: 2014-05-18
回 nyaaaaa 的帖子
nyaaaaa:拉拉利居然听少女系列歌  (2014-05-18 02:01) 

不是少女唱的歌么..
离线uhybfv
发帖
1079
『♭』
2075
『D』
8
『♥』
36
『∮』
55
『C』
15
只看该作者 16楼 发表于: 2014-05-18
回 9楼(ferrari) 的帖子
ferrari:这次萌购好快,13号海外到货,今天就到我手里了...
团发. (2014-05-17 20:17) 

萌购生意好起来了~上次买东西,两件都是7天
离线leo821024
发帖
342
『♭』
3955
『D』
6
『♥』
8
『∮』
37
『C』
6
只看该作者 17楼 发表于: 2014-05-18
這張等超久的終於出惹
离线沉淀
发帖
825
『♭』
4201
『D』
0
『♥』
4
『∮』
0
『C』
0
只看该作者 18楼 发表于: 2014-05-18
来收碟orz喜欢主唱妹子!><
离线tohmafu
发帖
56
『♭』
293
『D』
4
『♥』
0
『∮』
20
『C』
4
只看该作者 19楼 发表于: 2014-05-18
封面感觉很棒w下了一边抄作业一边听(