论坛风格切换永遠の窄版
  • 880阅读
  • 10回复

[自抓][111119][ボーマス18]who are you?/カラスヤサボウ[WAV] [复制链接]

上一主题 下一主题
离线西園幽子
 
发帖
270
『♭』
1023
『D』
2
『♥』
8
『∮』
3
『C』
2
只看楼主 倒序阅读 使用道具 楼主  发表于: 2014-04-01
— 本帖被 29redrows 执行加亮操作(2014-04-01) —



[111119][ボーマス18]who are you?/カラスヤサボウ



Tracklist



  • 1
    who are you?                                          
    カラスヤサボウ feat. 鏡音リン

  • 2
    (everyday is like the)show business                                          
    カラスヤサボウ feat. 鏡音リン

  • 3
    ジャバヲッキー・ジャバヲッカ (3:07)                                          
    カラスヤサボウ feat. 鏡音リン, 鏡音レン

  • 4
    レガシイ                                          
    カラスヤサボウ feat. 鏡音リン

  • 5
    カナリヤ                                        
    カラスヤサボウ feat. 鏡音リン

  • 6
    パペットガール                                          
    カラスヤサボウ feat. 鏡音リン

  • 7
    ペイントガアル                                        
    カラスヤサボウ feat. 鏡音リン

  • 8
    and I'm here                                        
    カラスヤサボウ feat. 鏡音リン

  • 9
    1、2、3                                        
    カラスヤサボウ feat. 鏡音リン, 鏡音レン





    ]出碟子预览时就很喜欢第二首曲子,今天抓碟这首却莫名创建失败,最后改了名单独抓了出来。。
    这张之后,茶房就很少发曲调比较柔软的歌了。。新碟还没到没听~
    茶房调的rin的低音柔美、高音有力,都非常值得推荐~
    算上这张,BCD里的茶房个人碟就全了><



    下载
    限制300b,5C或者1D积分(满足其一即可)

    下载
    限制300b,5C或者1D积分(满足其一即可)


    此帖售价 8 『♭』,已有 7 人购买 [记录] [购买]
    购买后,将显示帖子中所有出售内容。
    若发现会员采用欺骗的方法获取财富,请立刻举报,我们会对会员处以2-N倍的罚金,严重者封掉ID!
    此段为出售的内容,购买后显示
    [ 此帖被西園幽子在2014-04-01 23:06重新编辑 ]
5条评分『♥』+2『C』+1『∮』+2『D』+1
rorikon 『♥』 +1 以大腿的名义 2014-04-01
29redrows 『C』 +1 你是好人 2014-04-01
29redrows 『∮』 +2 你是好人 2014-04-01
29redrows 『♥』 +1 你是好人 2014-04-01
29redrows 『D』 +1 你是好人 2014-04-01
离线西園幽子
发帖
270
『♭』
1023
『D』
2
『♥』
8
『∮』
3
『C』
2
只看该作者 沙发  发表于: 2014-04-01
证明:


log:

Exact Audio Copy V1.0 beta 3 from 29. August 2011

EAC 抓取日志文件从1. 四月 2014, 20:50

カラスヤサボウ / who are you?

使用驱动器  :HL-DT-STDVDRAM GP50NB40   Adapter: 1  ID: 1

读取模式      : 可靠Secure
使用精确流     : 是
清空音频缓存    : 否
使用 C2 指示器 : 否

读取偏移校正:               : 6
读取 Lead-In 和 Lead-Out : 是
用静音填充抓取中丢失偏移的采样       : 是
去除首尾静音块               : 否
在CRC 计算中使用了空样本       : 是
已用接口                  : Win NT 及 2000 本地 Win32 接口
间隙处理                  : 没检测到,因此追加到上一曲目

所用输出模式: : 内部 WAV 函数
样本格式    : 44.100 Hz; 16 Bit; 立体声


已抓取 CD 的 TOC

     音轨 |    起始    |    长度    |  起始扇区  |  结束扇区  
    --------------------------------------------
      1 |  0:00.00 |  4:01.24 |      0 |  18098
      2 |  4:01.24 |  3:36.46 |  18099 |  34344
      3 |  7:37.70 |  3:11.31 |  34345 |  48700
      4 | 10:49.26 |  5:28.10 |  48701 |  73310
      5 | 16:17.36 |  4:23.23 |  73311 |  93058
      6 | 20:40.59 |  4:51.00 |  93059 | 114883
      7 | 25:31.59 |  3:56.55 | 114884 | 132638
      8 | 29:28.39 |  4:30.26 | 132639 | 152914
      9 | 33:58.65 |  4:49.35 | 152915 | 174624


音轨  1

     文件名 E:\20140401\カラスヤサボウ - who are you\01 who are you - カラスヤサボウ feat. 鏡音リン.wav

     峰值电平 100.0 %
     抓取速度 1.9 X
     音轨质量 99.9 %
     测试 CRC 2121B5F1
     复制 CRC 2121B5F1
     复制成功

音轨  2

     文件名 E:\20140401\カラスヤサボウ - who are you\02 2 - カラスヤサボウ feat. 鏡音リン.wav

     峰值电平 100.0 %
     抓取速度 2.2 X
     音轨质量 100.0 %
     测试 CRC EEC53EC0
     复制 CRC EEC53EC0
     复制成功

音轨  3

     文件名 E:\20140401\カラスヤサボウ - who are you\03 ジャバヲッキー・ジャバヲッカ - カラスヤサボウ feat. 鏡音リン, 鏡音レン.wav

     峰值电平 100.0 %
     抓取速度 2.3 X
     音轨质量 100.0 %
     测试 CRC 26055FE7
     复制 CRC 26055FE7
     复制成功

音轨  4

     文件名 E:\20140401\カラスヤサボウ - who are you\04 レガシイ - カラスヤサボウ feat. 鏡音リン.wav

     峰值电平 100.0 %
     抓取速度 2.6 X
     音轨质量 100.0 %
     测试 CRC 42F530C0
     复制 CRC 42F530C0
     复制成功

音轨  5

     文件名 E:\20140401\カラスヤサボウ - who are you\05 カナリヤ - カラスヤサボウ feat. 鏡音リン.wav

     峰值电平 100.0 %
     抓取速度 2.8 X
     音轨质量 100.0 %
     测试 CRC A858C83A
     复制 CRC A858C83A
     复制成功

音轨  6

     文件名 E:\20140401\カラスヤサボウ - who are you\06 パペットガール - カラスヤサボウ feat. 鏡音リン.wav

     峰值电平 100.0 %
     抓取速度 3.0 X
     音轨质量 100.0 %
     测试 CRC F8BEEA49
     复制 CRC F8BEEA49
     复制成功

音轨  7

     文件名 E:\20140401\カラスヤサボウ - who are you\07 ペイントガアル - カラスヤサボウ feat. 鏡音リン.wav

     峰值电平 100.0 %
     抓取速度 3.1 X
     音轨质量 99.9 %
     测试 CRC 1D69037E
     复制 CRC 1D69037E
     复制成功

音轨  8

     文件名 E:\20140401\カラスヤサボウ - who are you\08 and I'm here - カラスヤサボウ feat. 鏡音リン.wav

     峰值电平 98.5 %
     抓取速度 3.3 X
     音轨质量 100.0 %
     测试 CRC E4B6E21B
     复制 CRC E4B6E21B
     复制成功

音轨  9

     文件名 E:\20140401\カラスヤサボウ - who are you\09 1、2、3 - カラスヤサボウ feat. 鏡音リン, 鏡音レン.wav

     可疑位置 0:04:49

     峰值电平 100.0 %
     抓取速度 3.4 X
     音轨质量 99.7 %
     测试 CRC 87324411
     复制 CRC 87324411
     复制结束

出现错误

状态报告结尾

---- CUETools DB Plugin V2.1.3

[CTDB TOCID: 5rgKovrZSYiyLjUw.DbPu0_B3h4-] found, Submit result: 5rgKovrZSYiyLjUw.DbPu0_B3h4- has been uploaded
[bff98714] (1/1) Differs in 9190 samples @38:48:01-38:48:09
You can use CUETools to repair this rip.


==== 记录校验日志 CEDC1BC79C800E26D6AD34FA8A842C8C03AC601DFA2488010A4807F4BD556291 ====

------------------------------------------------------------

Exact Audio Copy V1.0 beta 3 from 29. August 2011

EAC 抓取日志文件从1. 四月 2014, 20:50

カラスヤサボウ / who are you?

使用驱动器  :HL-DT-STDVDRAM GP50NB40   Adapter: 1  ID: 1

读取模式      : 可靠Secure
使用精确流     : 是
清空音频缓存    : 否
使用 C2 指示器 : 否

读取偏移校正:               : 6
读取 Lead-In 和 Lead-Out : 是
用静音填充抓取中丢失偏移的采样       : 是
去除首尾静音块               : 否
在CRC 计算中使用了空样本       : 是
已用接口                  : Win NT 及 2000 本地 Win32 接口
间隙处理                  : 没检测到,因此追加到上一曲目

所用输出模式: : 内部 WAV 函数
样本格式    : 44.100 Hz; 16 Bit; 立体声


已抓取 CD 的 TOC

     音轨 |    起始    |    长度    |  起始扇区  |  结束扇区  
    --------------------------------------------
      1 |  0:00.00 |  4:01.24 |      0 |  18098
      2 |  4:01.24 |  3:36.46 |  18099 |  34344
      3 |  7:37.70 |  3:11.31 |  34345 |  48700
      4 | 10:49.26 |  5:28.10 |  48701 |  73310
      5 | 16:17.36 |  4:23.23 |  73311 |  93058
      6 | 20:40.59 |  4:51.00 |  93059 | 114883
      7 | 25:31.59 |  3:56.55 | 114884 | 132638
      8 | 29:28.39 |  4:30.26 | 132639 | 152914
      9 | 33:58.65 |  4:49.35 | 152915 | 174624


音轨  1

     文件名 E:\20140401\カラスヤサボウ - who are you\01 who are you - カラスヤサボウ feat. 鏡音リン.wav

     峰值电平 100.0 %
     抓取速度 1.9 X
     音轨质量 99.9 %
     测试 CRC 2121B5F1
     复制 CRC 2121B5F1
     复制成功

音轨  2

     文件名 E:\20140401\カラスヤサボウ - who are you\02 2 - カラスヤサボウ feat. 鏡音リン.wav

     峰值电平 100.0 %
     抓取速度 2.2 X
     音轨质量 100.0 %
     测试 CRC EEC53EC0
     复制 CRC EEC53EC0
     复制成功

音轨  3

     文件名 E:\20140401\カラスヤサボウ - who are you\03 ジャバヲッキー・ジャバヲッカ - カラスヤサボウ feat. 鏡音リン, 鏡音レン.wav

     峰值电平 100.0 %
     抓取速度 2.3 X
     音轨质量 100.0 %
     测试 CRC 26055FE7
     复制 CRC 26055FE7
     复制成功

音轨  4

     文件名 E:\20140401\カラスヤサボウ - who are you\04 レガシイ - カラスヤサボウ feat. 鏡音リン.wav

     峰值电平 100.0 %
     抓取速度 2.6 X
     音轨质量 100.0 %
     测试 CRC 42F530C0
     复制 CRC 42F530C0
     复制成功

音轨  5

     文件名 E:\20140401\カラスヤサボウ - who are you\05 カナリヤ - カラスヤサボウ feat. 鏡音リン.wav

     峰值电平 100.0 %
     抓取速度 2.8 X
     音轨质量 100.0 %
     测试 CRC A858C83A
     复制 CRC A858C83A
     复制成功

音轨  6

     文件名 E:\20140401\カラスヤサボウ - who are you\06 パペットガール - カラスヤサボウ feat. 鏡音リン.wav

     峰值电平 100.0 %
     抓取速度 3.0 X
     音轨质量 100.0 %
     测试 CRC F8BEEA49
     复制 CRC F8BEEA49
     复制成功

音轨  7

     文件名 E:\20140401\カラスヤサボウ - who are you\07 ペイントガアル - カラスヤサボウ feat. 鏡音リン.wav

     峰值电平 100.0 %
     抓取速度 3.1 X
     音轨质量 99.9 %
     测试 CRC 1D69037E
     复制 CRC 1D69037E
     复制成功

音轨  8

     文件名 E:\20140401\カラスヤサボウ - who are you\08 and I'm here - カラスヤサボウ feat. 鏡音リン.wav

     峰值电平 98.5 %
     抓取速度 3.3 X
     音轨质量 100.0 %
     测试 CRC E4B6E21B
     复制 CRC E4B6E21B
     复制成功

音轨  9

     文件名 E:\20140401\カラスヤサボウ - who are you\09 1、2、3 - カラスヤサボウ feat. 鏡音リン, 鏡音レン.wav

     可疑位置 0:04:49

     峰值电平 100.0 %
     抓取速度 3.4 X
     音轨质量 99.7 %
     测试 CRC 87324411
     复制 CRC 87324411
     复制结束

出现错误

状态报告结尾

---- CUETools DB Plugin V2.1.3

[CTDB TOCID: 5rgKovrZSYiyLjUw.DbPu0_B3h4-] found, Submit result: 5rgKovrZSYiyLjUw.DbPu0_B3h4- has been uploaded
[bff98714] (1/1) Differs in 9190 samples @38:48:01-38:48:09
You can use CUETools to repair this rip.


==== 记录校验日志 CEDC1BC79C800E26D6AD34FA8A842C8C03AC601DFA2488010A4807F4BD556291 ====

------------------------------------------------------------

Exact Audio Copy V1.0 beta 3 from 29. August 2011

EAC 抓取日志文件从1. 四月 2014, 20:53

カラスヤサボウ / who are you?

使用驱动器  :HL-DT-STDVDRAM GP50NB40   Adapter: 1  ID: 1

读取模式      : 可靠Secure
使用精确流     : 是
清空音频缓存    : 否
使用 C2 指示器 : 否

读取偏移校正:               : 6
读取 Lead-In 和 Lead-Out : 是
用静音填充抓取中丢失偏移的采样       : 是
去除首尾静音块               : 否
在CRC 计算中使用了空样本       : 是
已用接口                  : Win NT 及 2000 本地 Win32 接口
间隙处理                  : 没检测到,因此追加到上一曲目

所用输出模式: : 内部 WAV 函数
样本格式    : 44.100 Hz; 16 Bit; 立体声


已抓取 CD 的 TOC

     音轨 |    起始    |    长度    |  起始扇区  |  结束扇区  
    --------------------------------------------
      1 |  0:00.00 |  4:01.24 |      0 |  18098
      2 |  4:01.24 |  3:36.46 |  18099 |  34344
      3 |  7:37.70 |  3:11.31 |  34345 |  48700
      4 | 10:49.26 |  5:28.10 |  48701 |  73310
      5 | 16:17.36 |  4:23.23 |  73311 |  93058
      6 | 20:40.59 |  4:51.00 |  93059 | 114883
      7 | 25:31.59 |  3:56.55 | 114884 | 132638
      8 | 29:28.39 |  4:30.26 | 132639 | 152914
      9 | 33:58.65 |  4:49.35 | 152915 | 174624


音轨  9

     文件名 E:\20140401\カラスヤサボウ - who are you\09 1、2、3 - カラスヤサボウ feat. 鏡音リン, 鏡音レン.wav

     可疑位置 0:04:49

     峰值电平 100.0 %
     抓取速度 3.4 X
     音轨质量 99.7 %
     复制 CRC 87324411
     复制结束

出现错误

状态报告结尾

==== 记录校验日志 8CB4BAE71B03706C94814DE5C1358004F57AAB3D3FD70E0666A6ED956545CFD3 ====

Exact Audio Copy V1.0 beta 3 from 29. August 2011

EAC 抓取日志文件从1. 四月 2014, 20:53

カラスヤサボウ / who are you?

使用驱动器  :HL-DT-STDVDRAM GP50NB40   Adapter: 1  ID: 1

读取模式      : 可靠Secure
使用精确流     : 是
清空音频缓存    : 否
使用 C2 指示器 : 否

读取偏移校正:               : 6
读取 Lead-In 和 Lead-Out : 是
用静音填充抓取中丢失偏移的采样       : 是
去除首尾静音块               : 否
在CRC 计算中使用了空样本       : 是
已用接口                  : Win NT 及 2000 本地 Win32 接口
间隙处理                  : 没检测到,因此追加到上一曲目

所用输出模式: : 内部 WAV 函数
样本格式    : 44.100 Hz; 16 Bit; 立体声


已抓取 CD 的 TOC

     音轨 |    起始    |    长度    |  起始扇区  |  结束扇区  
    --------------------------------------------
      1 |  0:00.00 |  4:01.24 |      0 |  18098
      2 |  4:01.24 |  3:36.46 |  18099 |  34344
      3 |  7:37.70 |  3:11.31 |  34345 |  48700
      4 | 10:49.26 |  5:28.10 |  48701 |  73310
      5 | 16:17.36 |  4:23.23 |  73311 |  93058
      6 | 20:40.59 |  4:51.00 |  93059 | 114883
      7 | 25:31.59 |  3:56.55 | 114884 | 132638
      8 | 29:28.39 |  4:30.26 | 132639 | 152914
      9 | 33:58.65 |  4:49.35 | 152915 | 174624


音轨  9

     文件名 E:\20140401\カラスヤサボウ - who are you\09 1、2、3 - カラスヤサボウ feat. 鏡音リン, 鏡音レン.wav

     可疑位置 0:04:49

     峰值电平 100.0 %
     抓取速度 3.4 X
     音轨质量 99.7 %
     复制 CRC 87324411
     复制结束

出现错误

状态报告结尾

==== 记录校验日志 8CB4BAE71B03706C94814DE5C1358004F57AAB3D3FD70E0666A6ED956545CFD3 ====



本主题包含附件,请 登录 后查看, 或者 注册 成为会员
1条评分『♭』+1
ferrari 『♭』 +1 你是好人 2014-04-02
离线candydre
发帖
1811
『♭』
5405
『D』
6
『♥』
108
『∮』
43
『C』
16
只看该作者 板凳  发表于: 2014-04-02
     可疑位置 0:04:49
目测又是lead采样。嘛不过也没影响吧
离线raii
发帖
802
『♭』
5236
『D』
25
『♥』
74
『∮』
145
『C』
27
只看该作者 地板  发表于: 2014-04-02
过去想听茶房一直没源。
文学少女吃错药以后突然源就井喷出来了,真好。
离线kazuma
发帖
451
『♭』
9524
『D』
0
『♥』
20
『∮』
10
『C』
11
只看该作者 4坟墓  发表于: 2014-04-02
那个盒子rin是是纸模还是塑料?看起来像是纸模的造型,不过质感却像塑料……
离线暴走蜗牛
发帖
688
『♭』
2872
『D』
96
『♥』
264
『∮』
664
『C』
122
只看该作者 5 希腊  发表于: 2014-04-02
各种补齐源啊( ・`ω・´)
离线西園幽子
发帖
270
『♭』
1023
『D』
2
『♥』
8
『∮』
3
『C』
2
只看该作者 6天桥  发表于: 2014-04-03
回 4楼(kazuma) 的帖子
kazuma:那个盒子rin是是纸模还是塑料?看起来像是纸模的造型,不过质感却像塑料…… (2014-04-02 07:43) 

PVC材质,全家赏里的小赏,后来还出过遥控器版的
离线galunter
发帖
112
『♭』
6644
『D』
0
『♥』
2
『∮』
0
『C』
0
只看该作者 7奶奶的大腿  发表于: 2014-05-21
补资源,记忆中茶房没什么接触
离线lanech
发帖
1071
『♭』
16404
『D』
249
『♥』
204
『∮』
1253
『C』
160
只看该作者 8蓝的尾巴  发表于: 2014-10-14
确实坛里茶房的碟齐了,可以一下补完真好
离线hulideguai
发帖
9
『♭』
22
『D』
0
『♥』
0
『∮』
0
『C』
0
只看该作者 ⑨十二号公路  发表于: 2016-06-17
不知道等我等级够了以后这个资源还在不在……
离线uhybfv
发帖
1076
『♭』
2099
『D』
8
『♥』
36
『∮』
55
『C』
15
只看该作者 10楼 发表于: 06-14
铲一铲,最近开始用网易云推送V+曲意外的不错