论坛风格切换永遠の窄版
  • 1579阅读
  • 20回复

[自抓][131023] V love 25 -Hearts- (wav+cue+iso+rr5%) [复制链接]

上一主题 下一主题
离线alastor
 
发帖
2615
『♭』
4426
『D』
11
『♥』
148
『∮』
62
『C』
31
只看楼主 倒序阅读 使用道具 楼主  发表于: 2014-03-07



発売日:2013年10月23日
価格:¥2,000(税込)
流通:全国
レーベル:BinaryMixx Records



CD紹介

心と心を、つなぐ。
ボーカロイド楽曲の “今” が楽しめる「V♥25(ぶい らぶ にこ)」の第8弾!
選りすぐりの話題作や新作など全20曲を収録。今回からは収録楽曲に紐づいたイラストや動画データを収録したDVD-ROM付き。
「袋とじ企画!ボカロPは誰だ!?」企画が復活。さらに、ユーザー参加型企画「あなたが選ぶ!ボカロ音楽」がスタート。
ジャケットイラストは domco.氏 が手掛ける。


曲目

01. トリノコシティ / 40mP feat. 初音ミク
02. birth / otetsu feat. 巡音ルカ
03. Tears / てぃあら feat. 初音ミク
04. 上弦の月 / 黒うさP feat. KAITO
05. cLick cRack / ギガP feat. 鏡音リン・鏡音レン・GUMI・巡音ルカ・初音ミク
06. ツイステッド / パトリチェフ feat. 鏡音リン
07. The end of begin all / ROY feat. 神威がくぽ
08. Iris / uz feat. IA
09. カメレオン・ラブ / PolyphonicBranch feat. 初音ミク
10. Kaguya / 涼風涼雨 feat. MEIKO
11. パラノイド / niki feat. Lily
12. 白昼夢にサヨナラ / yukki# feat. 鏡音レン
13. こどものしくみ / ピノキオP feat. 初音ミク
14. 高音厨音域テスト / 木村わいP feat. 初音ミク
15. M.S.S.Planet / M.S.S Project feat. 初音ミク・GUMI
16. ハロー、オレ神様。 / 黒田亜津 feat. 初音ミク
17. ニコニコハロウィンパーティー / halyosy feat. 初音ミク
18. アッパーチューン / yksb feat. IA・巡音ルカ
19. 透明エレジー / n-buna feat. GUMI
20. 怪晴 / 触媒ファントムガール feat. GUMI


个人意见

来吐槽我吧,我就是买了坑爹商碟的脑残……

其实也算是临时凑数,就顺手把这张买上了,反正都是2000yen,这张曲目数是NAGATOSHIN的两倍啊23333

整体来说……没有什么整体,这种碟根本就没有整体而言,反正我是不可能顺着列表听下来的(至少要把KAITO和茄子跳过去……
我感觉拼盘碟里有几首比较好听的就够了,不爱听的忽略就好……反正这张还算可以吧,比ETP稍好(?)
看阵容是挺强大,不过含金量怎么样……你们还是自己下载回去听吧,其实都是nico上投过稿的,只可惜我最近没上nico了(为什么40mp又混进来炒冷饭了

附带的DVD其实就是pv合集,而且还是数据DVD,里面是分开的mp4文件,nico你能不能不要这么省事(我不如自己去nico扒视频
所以DVD我就随便用Daemon Tools抓了个iso,想要的人可以单另下载

顺便说一下,控控前一段时间买的商碟被吐槽惨了……你们不要这样,控控很伤心的,你们来吐槽我就够了23333

最后感谢二十九红行(读作学姐)帮忙找专辑封面


下载

限制700b,10C或者2D积分(满足其一即可)
禁止任何形式的转载


地址:
本部分内容设定了隐藏,需要回复后才能看到


解压密码(两个包密码一样):
此帖售价 50 『♭』,已有 13 人购买 [记录] [购买]
购买后,将显示帖子中所有出售内容。
若发现会员采用欺骗的方法获取财富,请立刻举报,我们会对会员处以2-N倍的罚金,严重者封掉ID!
此段为出售的内容,购买后显示


ps.最近买了个垃圾耳塞然后刷新了我的听音观……自抓证明和log见后
[ 此帖被alastor在2014-03-07 13:56重新编辑 ]
3条评分『C』+1『D』+1『♭』+6
rorikon 『♭』 +6 4+1+1 2014-03-07
rorikon 『D』 +1 以大腿的名义 2014-03-07
rorikon 『C』 +1 什么塞 2014-03-07
离线alastor
发帖
2615
『♭』
4426
『D』
11
『♥』
148
『∮』
62
『C』
31
只看该作者 沙发  发表于: 2014-03-07
自抓证明


LOG
  1. Exact Audio Copy V1.0 beta 3 from 29. August 2011
  2. EAC extraction logfile from 9. February 2014, 3:04
  3. Various Artists / V love 25 -Hearts-
  4. Used drive  : Optiarc DVD RW AD-7710H   Adapter: 1  ID: 0
  5. Read mode               : Secure
  6. Utilize accurate stream : Yes
  7. Defeat audio cache      : Yes
  8. Make use of C2 pointers : No
  9. Read offset correction                      : 48
  10. Overread into Lead-In and Lead-Out          : No
  11. Fill up missing offset samples with silence : Yes
  12. Delete leading and trailing silent blocks   : No
  13. Null samples used in CRC calculations       : Yes
  14. Used interface                              : Native Win32 interface for Win NT & 2000
  15. Used output format : Internal WAV Routines
  16. Sample format      : 44.100 Hz; 16 Bit; Stereo
  17. TOC of the extracted CD
  18.      Track |   Start  |  Length  | Start sector | End sector
  19.     ---------------------------------------------------------
  20.         1  |  0:00.00 |  3:25.09 |         0    |    15383  
  21.         2  |  3:25.09 |  3:47.04 |     15384    |    32412  
  22.         3  |  7:12.13 |  4:55.49 |     32413    |    54586  
  23.         4  | 12:07.62 |  3:59.02 |     54587    |    72513  
  24.         5  | 16:06.64 |  4:36.45 |     72514    |    93258  
  25.         6  | 20:43.34 |  3:38.44 |     93259    |   109652  
  26.         7  | 24:22.03 |  4:48.61 |    109653    |   131313  
  27.         8  | 29:10.64 |  4:14.33 |    131314    |   150396  
  28.         9  | 33:25.22 |  2:54.10 |    150397    |   163456  
  29.        10  | 36:19.32 |  3:47.14 |    163457    |   180495  
  30.        11  | 40:06.46 |  3:18.28 |    180496    |   195373  
  31.        12  | 43:24.74 |  4:34.10 |    195374    |   215933  
  32.        13  | 47:59.09 |  4:08.73 |    215934    |   234606  
  33.        14  | 52:08.07 |  1:33.04 |    234607    |   241585  
  34.        15  | 53:41.11 |  3:32.46 |    241586    |   257531  
  35.        16  | 57:13.57 |  5:21.24 |    257532    |   281630  
  36.        17  | 62:35.06 |  1:49.57 |    281631    |   289862  
  37.        18  | 64:24.63 |  5:29.03 |    289863    |   314540  
  38.        19  | 69:53.66 |  3:44.57 |    314541    |   331397  
  39.        20  | 73:38.48 |  2:33.53 |    331398    |   342925  
  40. Range status and errors
  41. Selected range
  42.      Filename F:\convert\V love 25 -Hearts-\Various Artists - V love 25 -Hearts-.wav
  43.      Peak level 100.0 %
  44.      Extraction speed 4.5 X
  45.      Range quality 100.0 %
  46.      Copy CRC 81A9C3A7
  47.      Copy OK
  48. No errors occurred
  49. AccurateRip summary
  50. Track  1  accurately ripped (confidence 2)  [264F7869]  (AR v2)
  51. Track  2  accurately ripped (confidence 2)  [D2A719F6]  (AR v2)
  52. Track  3  accurately ripped (confidence 2)  [1E224384]  (AR v2)
  53. Track  4  accurately ripped (confidence 2)  [4E481478]  (AR v2)
  54. Track  5  accurately ripped (confidence 2)  [1DD1C1B6]  (AR v2)
  55. Track  6  accurately ripped (confidence 2)  [FDE25E14]  (AR v2)
  56. Track  7  accurately ripped (confidence 2)  [085CE5C8]  (AR v2)
  57. Track  8  accurately ripped (confidence 2)  [C01C91A2]  (AR v2)
  58. Track  9  accurately ripped (confidence 2)  [1BF4C00F]  (AR v2)
  59. Track 10  accurately ripped (confidence 2)  [7D8E9588]  (AR v2)
  60. Track 11  accurately ripped (confidence 2)  [76011560]  (AR v2)
  61. Track 12  accurately ripped (confidence 2)  [4DC93B3D]  (AR v2)
  62. Track 13  accurately ripped (confidence 2)  [67461360]  (AR v2)
  63. Track 14  accurately ripped (confidence 2)  [67AF7882]  (AR v2)
  64. Track 15  accurately ripped (confidence 2)  [FA1E0068]  (AR v2)
  65. Track 16  accurately ripped (confidence 2)  [C30CC225]  (AR v2)
  66. Track 17  accurately ripped (confidence 2)  [E57D9F5A]  (AR v2)
  67. Track 18  accurately ripped (confidence 2)  [E1CAA2FC]  (AR v2)
  68. Track 19  accurately ripped (confidence 2)  [5AE121E4]  (AR v2)
  69. Track 20  accurately ripped (confidence 2)  [46B170B3]  (AR v2)
  70. All tracks accurately ripped
  71. End of status report
  72. ---- CUETools DB Plugin V2.1.3
  73. [CTDB TOCID: y3bIyBCEi3epxAW56GuK_Ya5DwE-] found, Submit result: y3bIyBCEi3epxAW56GuK_Ya5DwE- has been confirmed
  74. [93c6c1df] (6/6) Accurately ripped
  75. ==== Log checksum BCB261EE920007C1D58B15CF5199B214A1F88227F923E485489FF3DCAEE56893 ====
[ 此帖被alastor在2014-03-07 13:54重新编辑 ]
1条评分『♭』+1
rorikon 『♭』 +1 证明好有趣. 2014-03-07
离线烂翔
发帖
4007
『♭』
7434
『D』
2
『♥』
217
『∮』
17
『C』
206
只看该作者 板凳  发表于: 2014-03-07
这张版权应该是due不是MiKTRoNicA
离线まゆゆ
发帖
1156
『♭』
1472
『D』
7
『♥』
77
『∮』
26
『C』
20
只看该作者 地板  发表于: 2014-03-07
DVD里的PV不是一向这样么 一点都不奇怪

你的金耳朵还有什么听音观
离线candydre
发帖
1826
『♭』
5361
『D』
6
『♥』
108
『∮』
43
『C』
16
只看该作者 4坟墓  发表于: 2014-03-07
好像没亮点
系列收下
离线菲加
发帖
202
『♭』
1444
『D』
10
『♥』
15
『∮』
45
『C』
10
只看该作者 5 希腊  发表于: 2014-03-07
这个系列给我的感觉就是——一开始挺正常的nico精选集,后来越做越成了不加点奇葩货就浑身难受的赶脚= =至于DVD,根本就是多余的,你一nico精选集还怕我们找不到PV看不成。。。作为每发一张碟都被吐槽自抓证明的人,本来这是个报仇的机会可以从头吐到尾但是

我特么就是个杯具
好吧,平心而论这张选曲质量还是过关的,下弦之月居然还是重调过的虽然效果我要保留下意见。。。
千万不要整张连续放因为这CD压根没有主题= =
把喜欢的曲子拖到播放列表,剩下的无视就行了= =
本主题包含附件,请 登录 后查看, 或者 注册 成为会员
1条评分『♥』+1
alastor 『♥』 +1 不应该啊,封面和证明都是flickr的 2014-03-07
离线月结
发帖
1608
『♭』
185
『D』
32
『♥』
122
『∮』
182
『C』
38
只看该作者 6天桥  发表于: 2014-03-07
n-buna 感觉蛮特别的。。。
还有kaito的上弦月不错啊。。我蛮喜欢kaito的歌曲的
撕脱屌爆了
2条评分『♭』+6
29redrows 『♭』 +5 2333333333333333333333333 2014-03-08
alastor 『♭』 +1 最后一句是怎么回事…… 2014-03-07
离线hkm3026
发帖
317
『♭』
3459
『D』
0
『♥』
1
『∮』
0
『C』
0
只看该作者 7奶奶的大腿  发表于: 2014-03-08
這系列出多少張了?
离线kazuma
发帖
459
『♭』
10590
『D』
0
『♥』
20
『∮』
10
『C』
11
只看该作者 8蓝的尾巴  发表于: 2014-03-08
f和g都还没听呢,h可就出来了……(捂脸
离线diahart
发帖
24
『♭』
642
『D』
0
『♥』
1
『∮』
0
『C』
0
只看该作者 ⑨十二号公路  发表于: 2014-03-09
cLick cRack & アッパーチューン are amazing songs.
离线暴走蜗牛
发帖
688
『♭』
2890
『D』
96
『♥』
264
『∮』
664
『C』
122
只看该作者 10楼 发表于: 2014-03-11
应该说,V love 25作为合集商业盘在选曲上……还是没啥问题的……不追固定P主的话其实这碟蛮合适的……比起ETP嗯
离线alastor
发帖
2615
『♭』
4426
『D』
11
『♥』
148
『∮』
62
『C』
31
只看该作者 11楼 发表于: 2014-03-11
回 暴走蜗牛 的帖子
暴走蜗牛:应该说,V love 25作为合集商业盘在选曲上……还是没啥问题的……不追固定P主的话其实这碟蛮合适的……比起ETP嗯 (2014-03-11 22:15) 

ETP冷饭太多……现在就靠卖特典了感觉
离线highrp
发帖
510
『♭』
8679
『D』
0
『♥』
3
『∮』
1
『C』
2
只看该作者 12楼 发表于: 2014-03-14
回 7楼(hkm3026) 的帖子
hkm3026:這系列出多少張了?[表情]  (2014-03-08 00:15) 

没记错的话,这个是第8张.....

刚刚发现简介里已经写了,这个的确是第八张
[ 此帖被highrp在2014-03-14 13:02重新编辑 ]
离线yukari
发帖
541
『♭』
3928
『D』
7
『♥』
8
『∮』
29
『C』
7
只看该作者 13楼 发表于: 2014-04-09
补一下资源- -···
离线aceu
发帖
83
『♭』
3804
『D』
0
『♥』
1
『∮』
0
『C』
0
只看该作者 14楼 发表于: 2014-08-07
Tears!!!這首太好聽了,出不去的感覺啊
离线sumino88
发帖
110
『♭』
2989
『D』
0
『♥』
6
『∮』
0
『C』
0
只看该作者 15楼 发表于: 2014-09-17
補資源 目前一系列聽下來 第5張我最愛
离线impossibro
发帖
38
『♭』
1
『D』
0
『♥』
1
『∮』
0
『C』
0
只看该作者 16楼 发表于: 2015-03-17
thanks for sharing!
离线末世殘炎
发帖
255
『♭』
1325
『D』
18
『♥』
19
『∮』
134
『C』
20
只看该作者 17楼 发表于: 2015-03-28
收下囉

封面路過owo
离线lanech
发帖
1193
『♭』
17968
『D』
294
『♥』
241
『∮』
1555
『C』
197
只看该作者 18楼 发表于: 07-23
我只是想收niki那首
离线sakuyachan
发帖
286
『♭』
3882
『D』
0
『♥』
6
『∮』
0
『C』
0
只看该作者 19楼 发表于: 08-14
我就为了第三首233333