论坛风格切换永遠の窄版
  • 1796阅读
  • 20回复

[自抓][131009] 椎名もた (ぽわぽわP) - アルターワー・セツナポップ (flac+cue+iso) [复制链接]

上一主题 下一主题
离线月结
 
发帖
1599
『♭』
98
『D』
32
『♥』
121
『∮』
182
『C』
37
只看楼主 倒序阅读 使用道具 楼主  发表于: 2013-10-24
— 本帖被 alastor 执行加亮操作(2013-10-24) —


CD (2013/10/9)
ディスク枚数: 1
レーベル: U/M/A/A Inc.
収録時間: 56 分
ASIN: B00E9FZSHW
EAN:  4571374911163


CD紹介

ボカロ発、吃驚の若き才能 「椎名もた」 吉兆仰天 2ndアルバム

デビュー以来、
VOCALOIDシーンのみにとどまらず 南波志帆 への楽曲提供や 渋谷慶一郎 のリミックス、
企業コラボレーションなど話題が絶えることのない18歳の若き才能、
椎名もた 待望のセカンドアルバム !

昨年3月発売のデビュー作 『夢のまにまに』 は、
このシーンでは珍しくキャラクター性に依存することのないプロモーション、
仕様にかかわらず話題を呼び賛否両論を巻き起こす。

今年4月に同人時代の作品をコンパイルした自身初のベストアルバムも手売りのみでの販売にもかかわらず、
2000枚のセールスを記録。
今作では、生録音の楽曲にアンダーグラウンドで確かな知名度と存在感を誇るミュージシャンを起用予定。
またミックスサポートやマスタリングは 益子樹氏 ( ROVO ) が担当。
椎名もた自身がオーバーグラウンドな存在ではあるが、
アンダーグラウンドからの支援を確実に受けつつ挑戦していく全く新しい作品となっている。


曲目

01. ピッコーン!!
02. MOSAIC
03. パレットには君がいっぱい
04. Q
05. ウソナキツクリワライ
06. forgot me not
07. シティライツ
08. Halo
09. ツギハギ
10. 嘘ップ
11. かげふみさんは言う
12. LIVEWELL
13. vanilla flavor piece

DVD(初回限定盤のみ)

1. ストロボライトdir & illust : 森井ケンシロウ
2. 夢のまにまにdir & illust : 84yen
3. MOSAICdir : Yuma Saito / illust : 金子開発


自抓证明




言论

以上就是买来的全部了。。。总觉得少给东西了。。。右下那些纸片图不错,小清新啊。。。反面是歌词。左上那个铁盒子是装碟子的我给跪了亏好不是在masadora买不然这个运费。。。

话说DVD的pv好神奇啊。。看不懂。。。怪怪的0.0

我咋知道这位p主的?因为那首Q,铃的“声嘶力竭”(措辞误),对它很是中毒啊,而且当时nico的弹幕也很有趣,发的弹幕会被上下错开。。话说这首在CD里面也被重制了,然后我也不知道我怎么就买了。。。其它的歌,那首最近投到nico上的,utau&V+合唱的那首也很赞( •̀ ω •́ )y ,总之风格挺喜欢的w

p.s. 和奶奶撞了真是荣幸。。。


下载链接

转载请在显眼出指明所在论坛、发布人以及源帖子 http://bbs.big-cd.com/read-htm-tid-17038.html,还有和我说一声0.0
禁止用作一切可能的商业用途,禁止压成有损或者分轨再分享.。。。
资源仅作交流分享,还请有爱地支持作者XD


链接:
本部分内容设定了隐藏,需要回复后才能看到



密码:
此帖售价 20 『♭』,已有 14 人购买 [记录] [购买]
购买后,将显示帖子中所有出售内容。
若发现会员采用欺骗的方法获取财富,请立刻举报,我们会对会员处以2-N倍的罚金,严重者封掉ID!
此段为出售的内容,购买后显示



付Q的PV:



自抓格式范例第一弹,由alastor在2013-10-25编辑
[ 此帖被alastor在2013-10-25 22:01重新编辑 ]
4条评分『C』+1『∮』+7『D』+1
alastor 『∮』 +1 补分 2013-10-25
alastor 『C』 +1 资源帖奖励 2013-10-24
alastor 『∮』 +6 资源帖奖励 2013-10-24
alastor 『D』 +1 资源帖奖励 2013-10-24
离线月结
发帖
1599
『♭』
98
『D』
32
『♥』
121
『∮』
182
『C』
37
只看该作者 沙发  发表于: 2013-10-24
相关其它证明:
log:
  1. Exact Audio Copy V1.0 beta 3 from 29. August 2011
  2. EAC 抓取日志文件从23. 十月 2013, 19:50
  3. Vocaloid / アルターワー・セツナポップ
  4. 使用驱动器  :HL-DT-STDVD+-RW GT60N   Adapter: 0  ID: 0
  5. 读取模式      : 可靠Secure
  6. 使用精确流     : 是
  7. 清空音频缓存    : 否
  8. 使用 C2 指示器 : 否
  9. 读取偏移校正:               : 103
  10. 读取 Lead-In 和 Lead-Out : 否
  11. 用静音填充抓取中丢失偏移的采样       : 是
  12. 去除首尾静音块               : 否
  13. 在CRC 计算中使用了空样本       : 是
  14. 已用接口                  : Win NT 及 2000 本地 Win32 接口
  15. 所用输出模式: : 内部 WAV 函数
  16. 样本格式    : 44.100 Hz; 16 Bit; 立体声
  17. 已抓取 CD 的 TOC
  18.      音轨 |    起始    |    长度    |  起始扇区  |  结束扇区  
  19.     --------------------------------------------
  20.       1 |  0:00.00 |  4:12.00 |      0 |  18899
  21.       2 |  4:12.00 |  4:13.00 |  18900 |  37874
  22.       3 |  8:25.00 |  3:41.00 |  37875 |  54449
  23.       4 | 12:06.00 |  4:18.00 |  54450 |  73799
  24.       5 | 16:24.00 |  4:24.00 |  73800 |  93599
  25.       6 | 20:48.00 |  4:26.00 |  93600 | 113549
  26.       7 | 25:14.00 |  2:50.00 | 113550 | 126299
  27.       8 | 28:04.00 |  4:58.00 | 126300 | 148649
  28.       9 | 33:02.00 |  3:17.00 | 148650 | 163424
  29.      10 | 36:19.00 |  3:42.00 | 163425 | 180074
  30.      11 | 40:01.00 |  7:16.00 | 180075 | 212774
  31.      12 | 47:17.00 |  4:04.00 | 212775 | 231074
  32.      13 | 51:21.00 |  4:19.30 | 231075 | 250529
  33. 范围状态及错误
  34. 已选择范围
  35.      文件名 K:\椎名もた(ぽわぽわP) - アルターワー・セツナポップ\椎名もた(ぽわぽわP) - アルターワー・セツナポップ.wav
  36.      峰值电平 97.5 %
  37.      抓取速度 6.7 X
  38.      范围质量 100.0 %
  39.      测试 CRC F42D3FB2
  40.      复制 CRC F42D3FB2
  41.      复制成功
  42. 没有错误发生
  43. AccurateRip 摘要
  44. 音轨  1  在数据库中不存在
  45. 音轨  2  在数据库中不存在
  46. 音轨  3  在数据库中不存在
  47. 音轨  4  在数据库中不存在
  48. 音轨  5  在数据库中不存在
  49. 音轨  6  在数据库中不存在
  50. 音轨  7  在数据库中不存在
  51. 音轨  8  在数据库中不存在
  52. 音轨  9  在数据库中不存在
  53. 音轨 10  在数据库中不存在
  54. 音轨 11  在数据库中不存在
  55. 音轨 12  在数据库中不存在
  56. 音轨 13  在数据库中不存在
  57. 没有任何音轨在 AccurateRip 数据库中有记录
  58. 状态报告结尾
  59. ---- CUETools DB Plugin V2.1.3
  60. [CTDB TOCID: fyL7j7RlHwXleTpCK73hSo17XAs-] found, Submit result: fyL7j7RlHwXleTpCK73hSo17XAs- has been confirmed
  61. [1e940b40] (1/1) Accurately ripped
  62. ==== 记录校验日志 9719CB7EFB13CD33D4A1C7F60CB94BA41C41EBEBDA366254F011AEA23E024E24 ====



[ 此帖被kagamine在2013-10-24 13:24重新编辑 ]
本主题包含附件,请 登录 后查看, 或者 注册 成为会员
1条评分『♭』+5
ferrari 『♭』 +5 自抓辛苦了!  233 2013-10-24
离线千本一流
发帖
409
『♭』
3316
『D』
22
『♥』
20
『∮』
119
『C』
24
只看该作者 板凳  发表于: 2013-10-24
这位p主的产量一直都很稳定啊
离线alastor
发帖
2615
『♭』
4426
『D』
11
『♥』
148
『∮』
62
『C』
31
只看该作者 地板  发表于: 2013-10-24
……我给你传就好啦
不过我这里用115也不太稳定就是了
2条评分『♥』+1『♭』+1
kagamine 『♥』 +1 (´・ω・`)谢谢斯托,话说现在这个帖子评分看得我虚。。 2013-10-25
kagamine 『♭』 +1 我是传半天百度盘发现被坑后转115盘的。。。 2013-10-24
离线raii
发帖
802
『♭』
5240
『D』
25
『♥』
74
『∮』
145
『C』
27
只看该作者 4坟墓  发表于: 2013-10-25
我的还没到_(:З」∠)_
1条评分『♭』+1
kagamine 『♭』 +1 (´・ω・`)也时萌购吗?唉我萌购买的居然比玛莎买的早到OTL 2013-10-25
离线月结
发帖
1599
『♭』
98
『D』
32
『♥』
121
『∮』
182
『C』
37
只看该作者 5 希腊  发表于: 2013-10-25
回 2楼(千本一流) 的帖子
千本一流:这位p主的产量一直都很稳定啊 (2013-10-24 16:41) 

那个,更新了iso,pv略奇葩

顺便自挽OTL
离线暴走蜗牛
发帖
688
『♭』
2888
『D』
96
『♥』
264
『∮』
664
『C』
122
只看该作者 6天桥  发表于: 2013-10-25
铁盒实体?略少见……不过比起塑料壳比较耐摔嗯……

顺便……包里面那几个exe……是解码器吧?
[ 此帖被暴走蜗牛在2013-10-26 20:25重新编辑 ]
1条评分『♭』+1
kagamine 『♭』 +1 硬邦邦的贴合子,相当牢固,适合长途运输&野蛮搬运233 2013-10-25
离线月结
发帖
1599
『♭』
98
『D』
32
『♥』
121
『∮』
182
『C』
37
只看该作者 7奶奶的大腿  发表于: 2013-10-28
回 6楼(暴走蜗牛) 的帖子
暴走蜗牛:铁盒实体?略少见……不过比起塑料壳比较耐摔嗯……
顺便……包里面那几个exe……是解码器吧? (2013-10-25 23:33) 

啊。。。才看见。。。
嗯,就是flac官方的解压压缩程序
因为压成flac能省我一个多到两小时的上传时间。。。而且我个人也不觉得这个格式有什么不好。。。
不过为了方便有需要的或者只爱wav的人(好吧还是坑到了。。),我就把flac.exe放进包里方便及时转格式(不过也得顺便改cue了w),md5sum.exe是为了证实解压之后的wav与解压前的一致,metaflac.exe就是看上去功能很多我就放进去了。。。
那个.txt文件其实里面也描述了w
离线uhybfv
发帖
1077
『♭』
2089
『D』
8
『♥』
36
『∮』
55
『C』
15
只看该作者 8蓝的尾巴  发表于: 2013-10-28
当初听equation喜欢上啦~
离线kazuma
发帖
459
『♭』
10003
『D』
0
『♥』
20
『∮』
10
『C』
11
只看该作者 ⑨十二号公路  发表于: 2013-10-28
弹幕上面的繁体字太扎眼了。真是哪里都有小学生……
离线a7271477
发帖
25
『♭』
468
『D』
0
『♥』
1
『∮』
0
『C』
0
只看该作者 10楼 发表于: 2013-11-14
记得VM24的那张也不错 这张也下来听听
1条评分『♭』+1
kagamine 『♭』 +1 這樣麼,求問VM24是哪張:-D 2013-11-14
离线andraswu
发帖
3
『♭』
8
『D』
0
『♥』
1
『∮』
0
『C』
0
只看该作者 11楼 发表于: 2014-01-07
專輯很可口...
看來錢包又要吊鹽水保命了...
离线negingai
发帖
3
『♭』
19
『D』
0
『♥』
1
『∮』
0
『C』
0
只看该作者 12楼 发表于: 2014-06-26
パレットには君がいっぱい也不错的
1条评分『♥』+1
阅至主楼 『♥』 +1 (´・ω・`)新人 2014-06-26
离线布布西瓜
发帖
165
『♭』
2239
『D』
0
『♥』
1
『∮』
0
『C』
0
只看该作者 13楼 发表于: 2015-07-05
这个找好久了喵ฅ•̀ω•́ฅ
离线wstby
发帖
85
『♭』
1473
『D』
1
『♥』
1
『∮』
0
『C』
1
只看该作者 14楼 发表于: 2015-08-07
唉。。。来晚了。。。
离线月结
发帖
1599
『♭』
98
『D』
32
『♥』
121
『∮』
182
『C』
37
只看该作者 15楼 发表于: 2015-08-08
回 14楼(wstby) 的帖子
wstby:唉。。。来晚了。。。[表情]  (2015-08-07 22:54) 

你想表达什么晚了。。。
离线deghry99
发帖
3
『♭』
13
『D』
0
『♥』
1
『∮』
0
『C』
0
只看该作者 16楼 发表于: 2015-09-13
謝謝找很久了
椎名もた ...
R.I.P.
离线cvery6
发帖
64
『♭』
32
『D』
0
『♥』
0
『∮』
0
『C』
0
只看该作者 17楼 发表于: 2015-10-28
椎名もた GUMI 不錯
离线zqh9843
发帖
830
『♭』
3708
『D』
0
『♥』
11
『∮』
0
『C』
1
只看该作者 18楼 发表于: 2016-05-02
好像没看到积分限制啊。。
离线codusk
发帖
2
『♭』
4
『D』
0
『♥』
0
『∮』
0
『C』
0
只看该作者 19楼 发表于: 2016-09-24
网上这张专的无损资源真是少...