论坛风格切换永遠の窄版
  • 1230阅读
  • 19回复

[自抓](ボーマス18,20,24)デスおはぎ CD*3(wav+cue+log+bk) [复制链接]

上一主题 下一主题
离线ensoph
 
发帖
134
『♭』
1960
『D』
45
『♥』
42
『∮』
284
『C』
45
只看楼主 倒序阅读 使用道具 楼主  发表于: 2013-09-07
— 本帖被 kagamine 执行加亮操作(2013-09-07) —
デスおはぎ - ドラマチックメモリー
[EAC](ボーマス18)デスおはぎ - ドラマチックメモリー(wav+cue+log+bk)[484M]

Track list:
01 桃色しーくれっと.exe
02 Sweets!
03 しゅーてぃん☆すたー2011
04 雪猫座行き、出航前夜。
05 マスター オブ パペッツ
06 Retrouvailles. -ルトゥルヴェイユ-
07 アンティーク ~午後四時、図書室より~
08 ヒメゴト
09 LIGHT MY FIRE
10 BELIEVER'S HIGH
11 キミとのキョリ (BonusTrack)

デスおはぎ - DEAD or ALIVE
[EAC](ボーマス20)デスおはぎ - DEAD or ALIVE(wav+cue+log+bk)[429M]

Track list:
01 Overture
02 Versus
03 Ultema
04 Alive
05 CRush
06 World's End Celebrate
07 残響
08 千紫万紅
09 密室落下寓話
10 寿限無電脳音楽箱(cover)

デスおはぎ - 最強テットテト音源集
[EAC](ボーマス24)デスおはぎ - 最強テットテト音源集(wav+cue+log+bk)[571M]

Track list:
01 月と桜とノスタルジー
02 最強テットテト計画
03 最強テットテト作戦
04 命短し恋せよ乙女
05 怪盗ツインドリルと米騒動
06 OUT & ABOUT
07 南の島と緑の恐竜
08 セーラー服とヴァンパイア
09 フレイムハート
10 失踪日和
11 太陽と海とモノローグ
12 代打少女とフォアボール
13 しゅーてぃん☆すたー





限制700b,5C或者1D积分(满足其一即可)

此帖售价 10 『♭』,已有 17 人购买 [记录] [购买]
购买后,将显示帖子中所有出售内容。
若发现会员采用欺骗的方法获取财富,请立刻举报,我们会对会员处以2-N倍的罚金,严重者封掉ID!
此段为出售的内容,购买后显示


过期不补,吃币不退,禁止转载,分流,转MP3及任何商业用途,如喜爱请支持正版!
[ 此帖被ensoph在2013-09-07 13:41重新编辑 ]
9条评分『♥』+3『C』+3『∮』+20『D』+3
eiga 『♥』 +1 (´・ω・`)赞一个 2014-03-19
kagamine 『∮』 +10 _(:з」∠)_X2 2013-09-07
kagamine 『∮』 +10 _(:з」∠)_ 2013-09-07
kagamine 『D』 +1 Sparta X3 2013-09-07
kagamine 『D』 +1 Sparta X2 2013-09-07
kagamine 『D』 +1 Sparta 2013-09-07
kagamine 『C』 +3 (´・ω・`) 2013-09-07
rorikon 『♥』 +1 抱大腿 2013-09-07
ferrari 『♥』 +1 壕! 2013-09-07
离线ensoph
发帖
134
『♭』
1960
『D』
45
『♥』
42
『∮』
284
『C』
45
只看该作者 沙发  发表于: 2013-09-07
log____________

Exact Audio Copy V0.99 prebeta 5 from 4. May 2009
EAC extraction logfile from 29. August 2013, 20:35
デスおはぎ / ドラマチックメモリー
Used drive  : CD-RW   GO-R5232B   Adapter: 0  ID: 0
Read mode               : Secure
Utilize accurate stream : Yes
Defeat audio cache      : Yes
Make use of C2 pointers : No
Read offset correction                      : 6
Overread into Lead-In and Lead-Out          : No
Fill up missing offset samples with silence : Yes
Delete leading and trailing silent blocks   : No
Null samples used in CRC calculations       : Yes
Used interface                              : Native Win32 interface for Win NT & 2000
Used output format : Internal WAV Routines
Sample format      : 44.100 Hz; 16 Bit; Stereo
TOC of the extracted CD
     Track |   Start  |  Length  | Start sector | End sector
    ---------------------------------------------------------
        1  |  0:00.00 |  4:13.00 |         0    |    18974  
        2  |  4:13.00 |  3:55.47 |     18975    |    36646  
        3  |  8:08.47 |  3:09.23 |     36647    |    50844  
        4  | 11:17.70 |  4:51.19 |     50845    |    72688  
        5  | 16:09.14 |  2:52.07 |     72689    |    85595  
        6  | 19:01.21 |  5:06.17 |     85596    |   108562  
        7  | 24:07.38 |  4:31.31 |    108563    |   128918  
        8  | 28:38.69 |  4:43.21 |    128919    |   150164  
        9  | 33:22.15 |  3:57.09 |    150165    |   167948  
       10  | 37:19.24 |  4:09.25 |    167949    |   186648  
       11  | 41:28.49 |  3:29.45 |    186649    |   202368  
Range status and errors
Selected range
     Filename C:\MUSIC\デスおはぎ - ドラマチックメモリー.wav
     Peak level 98.5 %
     Range quality 100.0 %
     Copy CRC 13B3CFA9
     Copy OK
No errors occurred
AccurateRip summary
Track  1  not present in database
Track  2  not present in database
Track  3  not present in database
Track  4  not present in database
Track  5  not present in database
Track  6  not present in database
Track  7  not present in database
Track  8  not present in database
Track  9  not present in database
Track 10  not present in database
Track 11  not present in database
None of the tracks are present in the AccurateRip database
End of status report

Exact Audio Copy V0.99 prebeta 5 from 4. May 2009
EAC extraction logfile from 8. May 2012, 20:09
デスおはぎ / DEAD or ALIVE
Used drive  : CD-RW   GO-R5232B   Adapter: 0  ID: 0
Read mode               : Secure
Utilize accurate stream : Yes
Defeat audio cache      : Yes
Make use of C2 pointers : No
Read offset correction                      : 6
Overread into Lead-In and Lead-Out          : No
Fill up missing offset samples with silence : Yes
Delete leading and trailing silent blocks   : No
Null samples used in CRC calculations       : Yes
Used interface                              : Native Win32 interface for Win NT & 2000
Used output format : Internal WAV Routines
Sample format      : 44.100 Hz; 16 Bit; Stereo

TOC of the extracted CD
     Track |   Start  |  Length  | Start sector | End sector
    ---------------------------------------------------------
        1  |  0:00.00 |  1:09.00 |         0    |     5174  
        2  |  1:09.00 |  5:12.57 |      5175    |    28631  
        3  |  6:21.57 |  4:24.38 |     28632    |    48469  
        4  | 10:46.20 |  4:17.00 |     48470    |    67744  
        5  | 15:03.20 |  4:21.57 |     67745    |    87376  
        6  | 19:25.02 |  3:53.38 |     87377    |   104889  
        7  | 23:18.40 |  2:24.00 |    104890    |   115689  
        8  | 25:42.40 |  3:44.01 |    115690    |   132490  
        9  | 29:26.41 |  4:12.12 |    132491    |   151402  
       10  | 33:38.53 |  2:52.01 |    151403    |   164303  

Range status and errors
Selected range
     Filename C:\MUSIC\デスおはぎ - DEAD or ALIVE.wav
     Peak level 99.9 %
     Range quality 100.0 %
     Copy CRC 2604FE6F
     Copy OK
No errors occurred

AccurateRip summary

Track  1  not present in database
Track  2  not present in database
Track  3  not present in database
Track  4  not present in database
Track  5  not present in database
Track  6  not present in database
Track  7  not present in database
Track  8  not present in database
Track  9  not present in database
Track 10  not present in database

None of the tracks are present in the AccurateRip database
End of status report

Exact Audio Copy V0.99 prebeta 5 from 4. May 2009
EAC extraction logfile from 29. August 2013, 20:47
デスおはぎ / 最強テットテト音源集
Used drive  : CD-RW   GO-R5232B   Adapter: 0  ID: 0
Read mode               : Secure
Utilize accurate stream : Yes
Defeat audio cache      : Yes
Make use of C2 pointers : No
Read offset correction                      : 6
Overread into Lead-In and Lead-Out          : No
Fill up missing offset samples with silence : Yes
Delete leading and trailing silent blocks   : No
Null samples used in CRC calculations       : Yes
Used interface                              : Native Win32 interface for Win NT & 2000
Used output format : Internal WAV Routines
Sample format      : 44.100 Hz; 16 Bit; Stereo

TOC of the extracted CD
     Track |   Start  |  Length  | Start sector | End sector
    ---------------------------------------------------------
        1  |  0:00.00 |  4:52.57 |         0    |    21956  
        2  |  4:52.57 |  4:14.47 |     21957    |    41053  
        3  |  9:07.29 |  4:23.64 |     41054    |    60842  
        4  | 13:31.18 |  3:40.42 |     60843    |    77384  
        5  | 17:11.60 |  4:44.25 |     77385    |    98709  
        6  | 21:56.10 |  3:00.28 |     98710    |   112237  
        7  | 24:56.38 |  2:55.15 |    112238    |   125377  
        8  | 27:51.53 |  4:16.17 |    125378    |   144594  
        9  | 32:07.70 |  3:53.54 |    144595    |   162123  
       10  | 36:01.49 |  3:35.61 |    162124    |   178309  
       11  | 39:37.35 |  3:18.47 |    178310    |   193206  
       12  | 42:56.07 |  4:32.45 |    193207    |   213651  
       13  | 47:28.52 |  3:07.13 |    213652    |   227689  

Range status and errors
Selected range
     Filename C:\MUSIC\デスおはぎ - 最強テットテト音源集.wav
     Peak level 99.9 %
     Range quality 100.0 %
     Copy CRC E1C6617D
     Copy OK
No errors occurred

AccurateRip summary

Track  1  not present in database
Track  2  not present in database
Track  3  not present in database
Track  4  not present in database
Track  5  not present in database
Track  6  not present in database
Track  7  not present in database
Track  8  not present in database
Track  9  not present in database
Track 10  not present in database
Track 11  not present in database
Track 12  not present in database
Track 13  not present in database

None of the tracks are present in the AccurateRip database
End of status report
离线まゆゆ
发帖
1156
『♭』
1472
『D』
7
『♥』
77
『∮』
26
『C』
20
只看该作者 板凳  发表于: 2013-09-07
壕无人性
离线沉淀
发帖
825
『♭』
4201
『D』
0
『♥』
4
『∮』
0
『C』
0
只看该作者 地板  发表于: 2013-09-07
都是满满的良心碟哇!谢lz
离线g_njl
发帖
2668
『♭』
3
『D』
42
『♥』
196
『∮』
180
『C』
194
只看该作者 4坟墓  发表于: 2013-09-07
來收大師傅的版本和補BK~
离线candydre
发帖
1791
『♭』
5353
『D』
5
『♥』
106
『∮』
36
『C』
15
只看该作者 5 希腊  发表于: 2013-09-07
teto。。
风格wwwwwwww
离线烂翔
发帖
4007
『♭』
7433
『D』
2
『♥』
217
『∮』
17
『C』
206
只看该作者 6天桥  发表于: 2013-09-07
近期en师傅和很多巨巨都来bcd我感觉很奇怪
离线ensoph
发帖
134
『♭』
1960
『D』
45
『♥』
42
『∮』
284
『C』
45
只看该作者 7奶奶的大腿  发表于: 2013-09-07
回 金糸雀 的帖子
金糸雀:近期en师傅和很多巨巨都来bcd我感觉很奇怪[表情]  (2013-09-07 19:31) 

以后大于等于3张并扫好BK的合辑发这里一份,最近没了
1条评分『♥』+1
ferrari 『♥』 +1 以大腿的名义 2013-09-08
离线烂翔
发帖
4007
『♭』
7433
『D』
2
『♥』
217
『∮』
17
『C』
206
只看该作者 8蓝的尾巴  发表于: 2013-09-07
回 7楼(ensoph) 的帖子
ensoph:以后大于等于3张并扫好BK的合辑发这里一份,最近没了 (2013-09-07 20:25) 

只能说句谢谢了,谢谢
离线kazuma
发帖
448
『♭』
8958
『D』
0
『♥』
20
『∮』
10
『C』
11
只看该作者 ⑨十二号公路  发表于: 2013-09-08
那张teto的碟子好厉害的说。utau不好调。
离线茄子党
发帖
903
『♭』
1202
『D』
5
『♥』
29
『∮』
31
『C』
5
只看该作者 10楼 发表于: 2013-09-08
第二张封面好厉害的样子
离线月结
发帖
1593
『♭』
82
『D』
32
『♥』
120
『∮』
182
『C』
37
只看该作者 11楼 发表于: 2013-09-08
teto可萌了~
不过从声音上来讲我更喜欢波音。。。
离线morven
发帖
1369
『♭』
883
『D』
67
『♥』
116
『∮』
359
『C』
147
只看该作者 12楼 发表于: 2013-09-08
喜闻乐见的合集(?
离线silencer19
发帖
1113
『♭』
2240
『D』
6
『♥』
37
『∮』
47
『C』
6
只看该作者 13楼 发表于: 2013-09-09
好棒的合集。。其实我是被封面吸进来的。。
离线nnnothhl
发帖
67
『♭』
3695
『D』
0
『♥』
1
『∮』
0
『C』
0
只看该作者 14楼 发表于: 2013-09-12
这货好喜欢UTAU啊,专注重音
离线meladrama
发帖
137
『♭』
1110
『D』
-1
『♥』
-15
『∮』
-20
『C』
-9
只看该作者 15楼 发表于: 2014-02-17
用户被禁言,该主题自动屏蔽!
离线eiga
发帖
239
『♭』
1421
『D』
6
『♥』
20
『∮』
31
『C』
6
只看该作者 16楼 发表于: 2014-03-19
用户被禁言,该主题自动屏蔽!
[ 此帖被eiga在2014-03-19 14:21重新编辑 ]
离线千本一流
发帖
409
『♭』
3302
『D』
22
『♥』
20
『∮』
119
『C』
24
只看该作者 17楼 发表于: 2014-03-21
好強的陣容,不過說實話utau的磚不多的樣子啊
离线dfghjkii
发帖
149
『♭』
1012
『D』
0
『♥』
1
『∮』
0
『C』
0
只看该作者 18楼 发表于: 02-12
听デスおはぎ的最強テットテト音源集的命短し恋せよ乙女
调教的声音一点违和感都没有
在线lanech
发帖
1031
『♭』
16003
『D』
234
『♥』
194
『∮』
1176
『C』
151
只看该作者 19楼 发表于: 02-12
说起来这三张的档还在坏掉那块硬盘里,来蹭蹭大腿