论坛风格切换永遠の窄版
  • 3321阅读
  • 36回复

[音樂][自抓] [C79] ナノウ - Fantasm-O-Matic (wav+cue+rr5%) [复制链接]

上一主题 下一主题
离线alastor
 
发帖
2615
『♭』
4426
『D』
11
『♥』
148
『∮』
62
『C』
31
只看楼主 倒序阅读 使用道具 楼主  发表于: 2013-09-03
— 本帖被 rorikon 执行加亮操作(2013-09-09) —


即売同人
発売2010年12月31日
価格1,500(税込)1,890(税込)
サークルナノウ



CD紹介

ほえほえPこと ナノウ 待望の1stアルバム。
コミックマーケット79で初頒布。
ニコニコ動画で公開している曲全てと『EXIT TUNES PRESENTS Supernova 4』収録の「Insomniac」、『VOCAROCK collection 2 feat. 初音ミク』収録の「うたうたいのうた」を収録。
Endingのギターと歌は、ナノウ本人による一発録りとのこと。CDの最後まで聴くと……?


曲目

01. Opening
02. カナシキヒステリックガール
03. 零と壱
04. Insomniac
05. 朝焼け、君の唄。
06. 「ねぇ。」
07. [It's not] World's end
08. 文学少年の憂鬱
09. ハロ/ハワユ
10. うたうたいのうた
11. サクラノ前夜
12. Ending


言论

这张我当时也算是随便买的,因为网上找不到,然后又觉得ナノウ很有特色,就和におP那张一起买下来了(买老碟OTL

没想到这张非常好听啊,第一次觉得买碟没买亏23333(因为我是jimmy脑残粉,所以那张REBOOT我就不说了)

呃,听V+的人应该都知道ナノウ吧……至少知道《3331》、《ハロ/ハワユ》和《文学少年の憂鬱》这三个中的一首。所以我想这砖估计是相当普及了

当然,如果你没听过,那我还是要强烈推荐下的。尤其是《Insomniac》、《ハロ/ハワユ》和《文学少年の憂鬱》。

实话说,我知道听了《文学少年の憂鬱》才觉得grado 225没买亏23333

同降权限,不降售价。50b也就是一周的事,我说过了


自抓证明




下载链接

限制1000b,10C或者2D积分(满足其一即可)
请不要以任何形式转载,包括emule共享(其实有密码就是了)


链接(百度盘):
本部分内容设定了隐藏,需要回复后才能看到


压缩包密码:
此帖售价 50 『♭』,已有 20 人购买 [记录] [购买]
购买后,将显示帖子中所有出售内容。
若发现会员采用欺骗的方法获取财富,请立刻举报,我们会对会员处以2-N倍的罚金,严重者封掉ID!
此段为出售的内容,购买后显示
[ 此帖被alastor在2014-01-16 18:47重新编辑 ]
6条评分『♥』+1『C』+1『∮』+6『D』+1『♭』+6
galunter 『♭』 +1 投币支持 2015-06-02
rorikon 『♥』 +1 \超好听/ 2013-09-24
ferrari 『♭』 +5 你是好人 2013-09-03
ferrari 『∮』 +6 wav整轨 233 2013-09-03
ferrari 『D』 +1 你是好人 2013-09-03
ferrari 『C』 +1 资源帖奖励 2013-09-03
离线alastor
发帖
2615
『♭』
4426
『D』
11
『♥』
148
『∮』
62
『C』
31
只看该作者 沙发  发表于: 2013-09-03
贴log
  1. Exact Audio Copy V1.0 beta 3 from 29. August 2011
  2. EAC extraction logfile from 16. July 2013, 18:17
  3. ナノウ / Fantasm-O-Matic
  4. Used drive  : Optiarc DVD RW AD-7710H   Adapter: 0  ID: 0
  5. Read mode               : Secure
  6. Utilize accurate stream : Yes
  7. Defeat audio cache      : Yes
  8. Make use of C2 pointers : No
  9. Read offset correction                      : 48
  10. Overread into Lead-In and Lead-Out          : No
  11. Fill up missing offset samples with silence : Yes
  12. Delete leading and trailing silent blocks   : No
  13. Null samples used in CRC calculations       : Yes
  14. Used interface                              : Native Win32 interface for Win NT & 2000
  15. Used output format : Internal WAV Routines
  16. Sample format      : 44.100 Hz; 16 Bit; Stereo
  17. TOC of the extracted CD
  18.      Track |   Start  |  Length  | Start sector | End sector
  19.     ---------------------------------------------------------
  20.         1  |  0:00.00 |  4:16.65 |         0    |    19264  
  21.         2  |  4:16.65 |  5:16.14 |     19265    |    42978  
  22.         3  |  9:33.04 |  4:20.00 |     42979    |    62478  
  23.         4  | 13:53.04 |  5:32.65 |     62479    |    87443  
  24.         5  | 19:25.69 |  5:06.56 |     87444    |   110449  
  25.         6  | 24:32.50 |  6:37.37 |    110450    |   140261  
  26.         7  | 31:10.12 |  5:46.00 |    140262    |   166211  
  27.         8  | 36:56.12 |  6:08.37 |    166212    |   193848  
  28.         9  | 43:04.49 |  4:48.18 |    193849    |   215466  
  29.        10  | 47:52.67 |  4:53.42 |    215467    |   237483  
  30.        11  | 52:46.34 |  5:58.00 |    237484    |   264333  
  31.        12  | 58:44.34 | 12:45.00 |    264334    |   321708  
  32. Range status and errors
  33. Selected range
  34.      Filename D:\convert\Fantasm-O-Matic\ナノウ - Fantasm-O-Matic.wav
  35.      Peak level 100.0 %
  36.      Extraction speed 4.3 X
  37.      Range quality 99.9 %
  38.      Test CRC 6433A886
  39.      Copy CRC 6433A886
  40.      Copy OK
  41. No errors occurred
  42. AccurateRip summary
  43. Track  1  accurately ripped (confidence 2)  [0A2B9162]  (AR v1)
  44. Track  2  accurately ripped (confidence 2)  [DE719BF3]  (AR v1)
  45. Track  3  accurately ripped (confidence 2)  [9745F8F6]  (AR v1)
  46. Track  4  accurately ripped (confidence 2)  [1A864A92]  (AR v1)
  47. Track  5  accurately ripped (confidence 2)  [39CD5D7B]  (AR v1)
  48. Track  6  accurately ripped (confidence 2)  [95C6573F]  (AR v1)
  49. Track  7  accurately ripped (confidence 2)  [98EA3B50]  (AR v1)
  50. Track  8  accurately ripped (confidence 2)  [67D75876]  (AR v1)
  51. Track  9  accurately ripped (confidence 2)  [1FBFAA12]  (AR v1)
  52. Track 10  accurately ripped (confidence 2)  [7EC25BFB]  (AR v1)
  53. Track 11  accurately ripped (confidence 2)  [B02932F6]  (AR v1)
  54. Track 12  accurately ripped (confidence 2)  [BDFF518A]  (AR v1)
  55. All tracks accurately ripped
  56. End of status report
  57. ---- CUETools DB Plugin V2.1.3
  58. [CTDB TOCID: BVMlaC_wAU44L6eO.HUFTY_Qoc8-] found, Submit result: BVMlaC_wAU44L6eO.HUFTY_Qoc8- has been confirmed
  59. [dd4609a4] (3/3) Accurately ripped
  60. ==== Log checksum 411ACC548FF2A7E322730A58EDEB12A50FB50536E9EC37FA1E180FF898E62435 ====
离线rorikon
发帖
5654
『♭』
519
『D』
17
『♥』
277
『∮』
124
『C』
45
只看该作者 板凳  发表于: 2013-09-03
其实文学少年の憂鬱我只听了唱见,沒有特别喜欢..是不是有罪=  =

斯托的推荐必须好好正坐倾听了(挺直
离线candydre
发帖
1819
『♭』
5350
『D』
6
『♥』
108
『∮』
43
『C』
16
只看该作者 地板  发表于: 2013-09-03
前两天刚被ルシュカ带动去收了et nu、The Waltz Of Anomalies、unsung
ナノウ的砖曲目重复真多。
1条评分『♭』+1
alastor 『♭』 +1 严重同意 2013-09-03
离线dearviolin
发帖
2238
『♭』
1079
『D』
1
『♥』
410
『∮』
11
『C』
5
只看该作者 4坟墓  发表于: 2013-09-03
Insomniac 個人覺得還蠻有趣的曲風
收下來聽聽下其他的~
离线g_njl
发帖
2668
『♭』
3
『D』
42
『♥』
196
『∮』
180
『C』
194
只看该作者 5 希腊  发表于: 2013-09-03
當初有人在某論壇推朝焼け、君の唄。這首曲子讓我開始記住了ナノウ,但自己是聽了他文学少年の憂鬱這首開始喜歡的。
离线ferrari
发帖
6967
『♭』
3419
『D』
7
『♥』
273
『∮』
74
『C』
61
只看该作者 6天桥  发表于: 2013-09-03
C79的还能买到!

第一次觉得买碟没买亏

以前买的都亏了么



自抓辛苦了..
离线烂翔
发帖
4007
『♭』
7433
『D』
2
『♥』
217
『∮』
17
『C』
206
只看该作者 7奶奶的大腿  发表于: 2013-09-03
我没听过我都不知道你在说啥
离线kazuma
发帖
459
『♭』
10003
『D』
0
『♥』
20
『∮』
10
『C』
11
只看该作者 8蓝的尾巴  发表于: 2013-09-05
记得在哪里听过ハロ/ハワユ的piano版。估计是まらしぃ的吧,大概……
离线沉淀
发帖
825
『♭』
4201
『D』
0
『♥』
4
『∮』
0
『C』
0
只看该作者 ⑨十二号公路  发表于: 2013-09-06
唔.这里有一半的曲子听过鹿乃的翻唱.倒是没听过nanou的(
离线花炭迷
发帖
434
『♭』
1999
『D』
22
『♥』
26
『∮』
48
『C』
24
只看该作者 10楼 发表于: 2013-09-07
這是nano
嗎0_0???
還是別人"""
离线まゆゆ
发帖
1156
『♭』
1472
『D』
7
『♥』
77
『∮』
26
『C』
20
只看该作者 11楼 发表于: 2013-09-13
我就是传说中的麻痹伪粉,歌都没听过,谢谢大家。
离线alastor
发帖
2615
『♭』
4426
『D』
11
『♥』
148
『∮』
62
『C』
31
只看该作者 12楼 发表于: 2013-09-13
回 kagamine 的帖子
kagamine:[表情] 我就是传说中的麻痹伪粉,歌都没听过,谢谢大家。 (2013-09-13 12:38) 

发生啥事???
离线rorikon
发帖
5654
『♭』
519
『D』
17
『♥』
277
『∮』
124
『C』
45
只看该作者 13楼 发表于: 2013-09-13
和ナノウ 『Waltz Of Anomaries』 联动下   Insomniac之前只听了唱见,果然miku更好听...

离线冷饮
发帖
1029
『♭』
6280
『D』
0
『♥』
69
『∮』
0
『C』
5
只看该作者 14楼 发表于: 2013-09-14
C79的老资源...
谢谢撕脱sama..
离线ktotptoptot
发帖
122
『♭』
31
『D』
1
『♥』
2
『∮』
0
『C』
1
只看该作者 15楼 发表于: 2013-09-24
因為文學少年認識ナノウ
真的很好聽
离线rorikon
发帖
5654
『♭』
519
『D』
17
『♥』
277
『∮』
124
『C』
45
只看该作者 16楼 发表于: 2013-09-24
人工顶一下,斯托大大的碟超好听
离线菲加
发帖
201
『♭』
1444
『D』
10
『♥』
15
『∮』
45
『C』
10
只看该作者 17楼 发表于: 2013-09-28
说起来nanou的新专已经有源了,正在听w
内容跟这张很多重复的。。。但是有两首新曲,质量都很高w
[ 此帖被菲加在2013-09-28 21:32重新编辑 ]
离线我比你帥
发帖
13
『♭』
5
『D』
0
『♥』
2
『∮』
0
『C』
0
只看该作者 18楼 发表于: 2013-10-16
这张很好听(我有这张MP3
但是我没无损的​​==
若不是大大我可能听不到无损
谢谢
离线alessjt
发帖
108
『♭』
13586
『D』
0
『♥』
2
『∮』
0
『C』
0
只看该作者 19楼 发表于: 2013-10-17
感覺上很經典的碟啊
興奮的抓了~~
感謝您的分享哦