论坛风格切换永遠の窄版
  • 2374阅读
  • 26回复

[自抓][130529] sasakure.UK - トンデモ未来空奏図(初回生産限定盤)(wav+cue) [复制链接]

上一主题 下一主题
离线團子
 
发帖
3057
『♭』
5
『D』
1
『♥』
49
『∮』
7
『C』
1
只看楼主 倒序阅读 使用道具 楼主  发表于: 2013-06-17
— 本帖被 ferrari 执行加亮操作(2013-06-30) —
圖片搬奶奶的
CD(130529)
光碟數目:1
レーベル: U/M/A/A Inc
収録時間: 54 分
ASIN: B00BI39JQE
EAN: 4571374910784

内容介绍
「それぞれの時代を生きる人々が思い描く未来観」をコンセプトに、現在から未来にかけて、その時代ごとに思い描かれる未来の形を楽曲を通じて表現してゆく、音楽性豊かな作品が登場!

2010年3月、音声合成技術「VOCALOID」を用いて、音声合成にしかできない音楽を、チップチューンやプログレといった豊かな表現を通じて提示した『ボーカロイドは終末鳥の夢を見るか?』で衝撃のデビューを果たし、2012年4月に発表した2ndalbum『幻実アイソーポス』では、世界中に散らばる寓話や現象、物語をコンセプトに、土岐麻子やCana(SotteBosse)、ChouCho、mirto、そらこ、marinaといった多彩な女性ゲスト・ボーカリストを迎え、楽曲の世界観に沿って音声合成と生歌唱でそれぞれの魅力を最大限に引き出した作品となり、オリコン・デイリー初登場4位を獲得した。

3作目となる本作では、「それぞれの時代を生きる人々が思い描く未来観」をコンセプトに、現在から未来にかけて、その時代ごとに思い描かれる未来の形を、それぞれの楽曲で表現してゆくというコンセプトによって構築された作品となっている。

スマホ向け放送局NOTTVの动画情報番組『アニ充』のテーマソングとして書き下ろされた「未来アタラシズム」や、4月18日に発売となるPSP用游戏软件『セブンスドラゴン2020-II』(SEGA)主題歌「HeavenZ-ÅrmZ」、"初音ミク"の游戏として爆発的なヒットを誇る人気系列の最新作、PS3用游戏『初音ミク -Project DIVA- F』(SEGA)に提供した「ネガポジ*コンティニューズ」などの話題曲も一挙収録!
プロデューサーsasakure.UKのサード・album。「それぞれの時代を生きる人々が思い描く未来観」をコンセプトに、現在から未来にかけて、その時代ごとに思い描かれる未来の形を楽曲で表現してゆく、音楽性豊かな作品。NOTTV『アニ充』主題歌「未来アタラシズム」や、游戏『セブンスドラゴン2020-II』主題歌「HeavenZ-ArmZ」他を収録。

Disc 1 | CD
01. トンデモ未来のスヾメ
02. 未来アタラシズム feat. 初音ミク
03. HeavenZ-ÅrmZ feat. 初音ミク
04. Icannotfly,butIcangetthefuture
05. アンチグラビティーズ feat. GUMI
06. トゥイー・ボックスの人形劇場 feat. 初音ミク
07. Mr.Wonderland feat. ピリオ
08. 蜘蛛糸モノポリー feat. 初音ミク
09. ネガポジ*コンティニューズ feat. 初音ミク
10. ホログラムの片隅で
11. ツギハギエデン feat. GUMI
12. クエスチョンユー100 feat. 初音ミク
13. トンデモ未来のユクスエ
14. 蜘蛛糸モノポリー feat. 初音ミク (QUADROPHENIA Redemption Remix) *Bonus Track
15. Atrops *Bonus Track

Disc 2 | DVD
01. 蜘蛛糸モノポリー feat. 初音ミク [MUSIC VIDEO]
02. Mr.Wonderland feat. ピリオ [MUSIC VIDEO]
03. ツギハギエデン feat. GUMI [MUSIC VIDEO]
04. トゥイー・ボックスの人形劇場 feat. 初音ミク [MUSIC VIDEO]
05. 未来アタラシズム feat. 初音ミク [SPECIAL LIVE VIDEO]
06. ネガポジ*コンティニューズ feat. 初音ミク [GAME MOVIE]
07. HeavenZ-ÅrmZ feat. 初音ミク [GAME MOVIE]
下載
本部分内容设定了隐藏,需要回复后才能看到

DVD
本部分内容设定了隐藏,需要回复后才能看到

PW
限制300b,5C或者1D积分(满足其一即可)

此帖售价 10 『♭』,已有 18 人购买 [记录] [购买]
购买后,将显示帖子中所有出售内容。
若发现会员采用欺骗的方法获取财富,请立刻举报,我们会对会员处以2-N倍的罚金,严重者封掉ID!
此段为出售的内容,购买后显示



[ 此帖被5052在2013-06-21 21:02重新编辑 ]
本主题包含附件,请 登录 后查看, 或者 注册 成为会员
8条评分『♥』+5『C』+1『∮』+7『D』+1『♭』+1
lanc123 『♭』 +1 投币支持 2013-07-17
雪暴公主 『♥』 +1 芙蓝:萌团子!!~ 2013-06-17
alastor 『C』 +1 资源帖奖励 2013-06-17
alastor 『∮』 +7 资源帖奖励 2013-06-17
alastor 『♥』 +1 资源帖奖励 2013-06-17
alastor 『D』 +1 资源帖奖励 2013-06-17
rorikon 『♥』 +2 團子/// 2013-06-17
ferrari 『♥』 +1 先支持下吧 2013-06-17
离线團子
发帖
3057
『♭』
5
『D』
1
『♥』
49
『∮』
7
『C』
1
只看该作者 沙发  发表于: 2013-06-17
log:

  1. Exact Audio Copy V1.0 beta 3 from 29. August 2011
  2. EAC 抓取日志文件从15. 六月 2013, 17:28
  3. sasakure.UK / トンデモ未来空奏図
  4. 使用驱动器  :ATAPI   DVD D  DH16D3S   Adapter: 0  ID: 0
  5. 读取模式      : 可靠Secure
  6. 使用精确流     : 是
  7. 清空音频缓存    : 否
  8. 使用 C2 指示器 : 是
  9. 组合读写偏移校正:             : 0
  10. 读取 Lead-In 和 Lead-Out : 是
  11. 用静音填充抓取中丢失偏移的采样       : 是
  12. 去除首尾静音块               : 否
  13. 在CRC 计算中使用了空样本       : 是
  14. 已用接口                  : Win NT 及 2000 本地 Win32 接口
  15. 所用输出模式: : 内部 WAV 函数
  16. 样本格式    : 44.100 Hz; 16 Bit; 立体声
  17. 已抓取 CD 的 TOC
  18.      音轨 |    起始    |    长度    |  起始扇区  |  结束扇区  
  19.     --------------------------------------------
  20.       1 |  0:00.00 |  1:52.39 |      0 |   8438
  21.       2 |  1:52.39 |  3:47.32 |   8439 |  25495
  22.       3 |  5:39.71 |  4:59.62 |  25496 |  47982
  23.       4 | 10:39.58 |  2:14.29 |  47983 |  58061
  24.       5 | 12:54.12 |  3:51.16 |  58062 |  75402
  25.       6 | 16:45.28 |  3:58.26 |  75403 |  93278
  26.       7 | 20:43.54 |  4:43.44 |  93279 | 114547
  27.       8 | 25:27.23 |  4:35.26 | 114548 | 135198
  28.       9 | 30:02.49 |  3:07.21 | 135199 | 149244
  29.      10 | 33:09.70 |  2:24.13 | 149245 | 160057
  30.      11 | 35:34.08 |  4:09.58 | 160058 | 178790
  31.      12 | 39:43.66 |  4:20.31 | 178791 | 198321
  32.      13 | 44:04.22 |  1:40.17 | 198322 | 205838
  33.      14 | 45:44.39 |  4:19.60 | 205839 | 225323
  34.      15 | 50:04.24 |  3:31.67 | 225324 | 241215
  35. 范围状态及错误
  36. 已选择范围
  37.      文件名 E:\sasakure.UK - トンデモ未来空奏図.wav
  38.      峰值电平 100.0 %
  39.      抓取速度 15.6 X
  40.      范围质量 100.0 %
  41.      复制 CRC 19FA20A2
  42.      复制成功
  43. 没有错误发生
  44. 状态报告结尾
[ 此帖被alastor在2013-06-17 16:40重新编辑 ]
离线ferrari
发帖
6967
『♭』
3419
『D』
7
『♥』
273
『∮』
74
『C』
61
只看该作者 板凳  发表于: 2013-06-17
很意外团子居然听V+,还是sasakure.UK粉  
本主题包含附件,请 登录 后查看, 或者 注册 成为会员
离线alastor
发帖
2615
『♭』
4426
『D』
11
『♥』
148
『∮』
62
『C』
31
只看该作者 地板  发表于: 2013-06-17
回 團子 的帖子
团子是好人啊啊……

这张据说不错呢,反正sasakure.UK是高手就是了
[ 此帖被alastor在2013-06-17 20:34重新编辑 ]
离线ko7777
发帖
195
『♭』
5710
『D』
0
『♥』
2
『∮』
0
『C』
10
只看该作者 4坟墓  发表于: 2013-06-17
只收到320k
果断收下~
分享辛苦了~
离线starcat
发帖
2210
『♭』
14503
『D』
0
『♥』
12
『∮』
0
『C』
0
只看该作者 5 希腊  发表于: 2013-06-17
买了还要回复啊
1条评分『♭』+1
alastor 『♭』 +1 回复顶帖啊……小心筋肉团子干掉你233 2013-06-17
离线candydre
发帖
1811
『♭』
5405
『D』
6
『♥』
108
『∮』
43
『C』
16
只看该作者 6天桥  发表于: 2013-06-17
圖片搬奶奶的

离线solowing
发帖
29
『♭』
812
『D』
1
『♥』
6
『∮』
9
『C』
5
只看该作者 7奶奶的大腿  发表于: 2013-06-17
特別來抓DVD
离线まゆゆ
发帖
1156
『♭』
1472
『D』
7
『♥』
77
『∮』
26
『C』
20
只看该作者 8蓝的尾巴  发表于: 2013-06-17
  你们都买这张碟实在是太好了ww 【2333
离线雪暴公主
发帖
86
『♭』
406
『D』
18
『♥』
17
『∮』
64
『C』
15
只看该作者 ⑨十二号公路  发表于: 2013-06-17
芙蓝:萌团子!!~
离线暴走蜗牛
发帖
688
『♭』
2872
『D』
96
『♥』
264
『∮』
664
『C』
122
只看该作者 10楼 发表于: 2013-06-17
那张碟之前拿到之后差不多审完了,然后自己的碟子到了╮( ̄▽ ̄")╭不拆堆着积灰,不过sasakure那张band的碟子可以抓出来,这周末好了
3条评分『♭』+3
g_njl 『♭』 +1 你是好人 2013-06-18
ferrari 『♭』 +1 同期待(´・ω・`) 2013-06-18
alastor 『♭』 +1 期待蜗牛壕…… 2013-06-17
离线d123456
发帖
1443
『♭』
4476
『D』
9
『♥』
47
『∮』
38
『C』
8
只看该作者 11楼 发表于: 2013-06-18
团子哟!!!!!!!!!!!团子哦!!!!!!!!!!!!可口美味弱受团子啊!!!!!!!!!
好久不见,你的自抓不能错过!辛苦了w
离线dearviolin
发帖
2238
『♭』
1079
『D』
1
『♥』
410
『∮』
11
『C』
5
只看该作者 12楼 发表于: 2013-06-18
萌糰子發現~  
2条评分『♥』+1『♭』+1
團子 『♥』 +1 (´・ω・`)延迟椛 2013-06-18
ferrari 『♭』 +1 萌椛发现 (´・ω・`) 2013-06-18
离线peterxiawei
发帖
583
『♭』
1547
『D』
0
『♥』
9
『∮』
0
『C』
0
只看该作者 13楼 发表于: 2013-06-18
     好评点赞
离线overlord26
发帖
568
『♭』
4567
『D』
13
『♥』
20
『∮』
49
『C』
13
只看该作者 14楼 发表于: 2013-06-18
sasakure.UK還是挺不錯的 點贊收下~
离线whycan
发帖
444
『♭』
12241
『D』
0
『♥』
7
『∮』
0
『C』
0
只看该作者 15楼 发表于: 2013-06-18
交完论文回来就看到sasakure.UK了
收下了!
离线jetwilson
发帖
74
『♭』
235
『D』
0
『♥』
6
『∮』
0
『C』
0
只看该作者 16楼 发表于: 2013-06-21
看见sasakure.UK就进来了,果断收下
离线苍蓝死神
发帖
164
『♭』
17713
『D』
0
『♥』
7
『∮』
0
『C』
0
只看该作者 17楼 发表于: 2013-06-27
楼主抓碟辛苦了。想到第九首曲子,简直菊花一紧,Diva f各种跪。
离线aceu
发帖
83
『♭』
3799
『D』
0
『♥』
1
『∮』
0
『C』
0
只看该作者 18楼 发表于: 2013-06-30
该主题已被管理员屏蔽!
离线shinsetsuna
发帖
8
『♭』
4
『D』
0
『♥』
1
『∮』
0
『C』
0
只看该作者 19楼 发表于: 2013-07-05
有第七龙神2020-2的主题曲,大爱