论坛风格切换永遠の窄版
  • 1657阅读
  • 10回复

[音樂][自抓][EAC](例大祭9)(同人音楽)[外柿山]東方ワルツ集(wav+cue+rr5%) [复制链接]

上一主题 下一主题
离线为爱而暗
 
发帖
734
『♭』
1964
『D』
21
『♥』
67
『∮』
101
『C』
22
只看楼主 倒序阅读 使用道具 楼主  发表于: 2013-05-29
— 本帖被 rorikon 从 博麗神社例大祭 9 移动到本区(2014-05-11) —
【東方ワルツ集】平成24年(2012年)5月27日、第九回博麗神社例大祭






01 管絃楽の為の「緑眼のワルツ」
02 木管五重奏の為の「氷精のワルツ」
03 2台のピアノと管絃楽の為の「夢時空ワルツ」
04 絃楽四重奏の為の「ワルツフランドール」
05 管絃楽の為の「さとりワルツ」
06 管絃楽の為の「怪事件ワルツ」
07 管絃楽の為の「虎柄のワルツ」
08 管絃楽の為の「グリニッジワルツ」










権太夫的华尔兹集子
试听nico:



有爱自取吃币不吐
发布于astost、Big-CD,禁止任何形式转载,发现删档
限制500b,5C或者1D积分(满足其一即可)

DL:
此帖售价 10 『♭』,已有 6 人购买 [记录] [购买]
购买后,将显示帖子中所有出售内容。
若发现会员采用欺骗的方法获取财富,请立刻举报,我们会对会员处以2-N倍的罚金,严重者封掉ID!
此段为出售的内容,购买后显示




密码:
对不起!您没有登录,请先登录论坛.



对不起!您没有登录,请先登录论坛.



对不起!您没有登录,请先登录论坛.

[ 此帖被rorikon在2013-05-29 01:10重新编辑 ]
3条评分『C』+1『∮』+4『D』+1
rorikon 『∮』 +4 投币支持 2013-05-29
rorikon 『D』 +1 (´・ω・`) 2013-05-29
rorikon 『C』 +1 资源帖奖励 2013-05-29
离线dearviolin
发帖
2238
『♭』
1079
『D』
1
『♥』
410
『∮』
11
『C』
5
只看该作者 沙发  发表于: 2013-05-29
沙發~
前排應援暗醤~
1条评分『♭』+1
为爱而暗 『♭』 +1 椛椛=3= 2013-05-29
离线为爱而暗
发帖
734
『♭』
1964
『D』
21
『♥』
67
『∮』
101
『C』
22
只看该作者 板凳  发表于: 2013-05-29
log:
Exact Audio Copy V1.0 beta 3 from 29. August 2011

EAC extraction logfile from 25. May 2013, 3:09

権太夫 / 東方ワルツ集

Used drive  : MATSHITADVD+-RW UJ8D1   Adapter: 0  ID: 2

Read mode               : Secure
Utilize accurate stream : Yes
Defeat audio cache      : No
Make use of C2 pointers : No

Read offset correction                      : 6
Overread into Lead-In and Lead-Out          : No
Fill up missing offset samples with silence : Yes
Delete leading and trailing silent blocks   : No
Null samples used in CRC calculations       : Yes
Used interface                              : Native Win32 interface for Win NT & 2000

Used output format : Internal WAV Routines
Sample format      : 44.100 Hz; 16 Bit; Stereo


TOC of the extracted CD

     Track |   Start  |  Length  | Start sector | End sector
    ---------------------------------------------------------
        1  |  0:00.00 |  2:11.53 |         0    |     9877  
        2  |  2:11.53 |  4:33.47 |      9878    |    30399  
        3  |  6:45.25 |  5:41.38 |     30400    |    56012  
        4  | 12:26.63 |  3:36.55 |     56013    |    72267  
        5  | 16:03.43 |  4:53.12 |     72268    |    94254  
        6  | 20:56.55 |  3:55.03 |     94255    |   111882  
        7  | 24:51.58 |  4:04.43 |    111883    |   130225  
        8  | 28:56.26 |  3:46.28 |    130226    |   147203  


Range status and errors

Selected range

     Filename D:\Music\権太夫 - 東方ワルツ集\権太夫 - 東方ワルツ集.wav

     Peak level 100.0 %
     Extraction speed 6.6 X
     Range quality 100.0 %
     Test CRC 4E1B46A6
     Copy CRC 4E1B46A6
     Copy OK

No errors occurred

End of status report

---- CUETools DB Plugin V2.1.3

[CTDB TOCID: zBfphH.4XTW_iyWmd_2Y8Liijg4-] disk not present in database, Submit result: zBfphH.4XTW_iyWmd_2Y8Liijg4- has been uploaded

离线沉淀
发帖
825
『♭』
4201
『D』
0
『♥』
4
『∮』
0
『C』
0
只看该作者 地板  发表于: 2013-05-29
補上例9的!之前收的外柿山好像也是自抓的.
离线工业文明
发帖
2929
『♭』
837
『D』
4
『♥』
417
『∮』
38
『C』
20
只看该作者 4坟墓  发表于: 2013-06-03
额,这个真是不错,
离线茄子党
发帖
910
『♭』
1162
『D』
5
『♥』
29
『∮』
31
『C』
5
只看该作者 5 希腊  发表于: 2013-06-06
试听过后准备挖碟,10b压力大!!
离线levelmax100
发帖
51
『♭』
2111
『D』
0
『♥』
3
『∮』
0
『C』
0
只看该作者 6天桥  发表于: 2013-06-07
收啊......哈....哈.....

离线benghuaigaod
发帖
17
『♭』
2301
『D』
0
『♥』
1
『∮』
0
『C』
0
只看该作者 7奶奶的大腿  发表于: 2014-12-15
這個社的人親自來中國投稿了都
离线amilka-chan
发帖
43
『♭』
2407
『D』
0
『♥』
3
『∮』
0
『C』
0
只看该作者 8蓝的尾巴  发表于: 2015-03-07
奇妙
谢谢~^_^~
离线neverdie480
发帖
91
『♭』
503
『D』
0
『♥』
1
『∮』
0
『C』
0
只看该作者 ⑨十二号公路  发表于: 2016-01-18
找這片找很久了 _(:3J L)_ 之前在展場上買過他們的作品
离线argon
发帖
94
『♭』
15508
『D』
0
『♥』
2
『∮』
0
『C』
0
只看该作者 10楼 发表于: 05-18
感謝自抓分享