论坛风格切换永遠の窄版
  • 2347阅读
  • 31回复

[自抓][130529] V.A. - TIME MACHINE(wav+cue+log+bk) [复制链接]

上一主题 下一主题
离线saintq
 
发帖
956
『♭』
6211
『D』
62
『♥』
136
『∮』
306
『C』
50
只看楼主 倒序阅读 使用道具 楼主  发表于: 2013-05-28
— 本帖被 alastor 执行加亮操作(2013-05-29) —


ボーカロイドクリエイターが書き下ろす、さまざまな時間旅行物語。
あなたは過去、未来どちらに行きたいですか?

ボーカロイドクリエイターによるコンセプト型编译album発売決定!
タイムマシンは、未来や過去へ移動するための架空の乗り物や装置。
時間を空間と同じように航行できます。
そんなタイムマシンに乗って、過去や未来、あるいは別の時空空間へと移動。 ・・・その先に待っていたものとは! ?

オリジナルファンタジー楽曲を、ボーカロイドクリエイターが書き下ろしました。
ジャケットイラストはpixiv等で活躍中のトリダモノを予定!
全15曲収録

1. 銀河トレイン/ALT(蕾P) feat.GUMI    
2. キマジメ少女のアカルイ未来計画/tilt - six feat.初音ミク    
3. ゲットバック/レフティモンスター feat.IA    
4. Time Loop/宮沢もよよ feat.初音ミク    
5. さよならタイムトラベル/OSTER project feat.GUMI    
6. カラクリ遺伝子脳/まふまふ feat.GUMI    
7. TIME MACHINE - B.C.E. 999    
8. たいむとらべら/emon feat.初音ミク    
9. 相対性エモーショナル/綿飴 feat.IA、初音ミク    
10. 青い自行车/Dixie Flatline feat.鏡音リン    
11. ダイジナモノ/レタスP feat.GUMI    
12. ハイストイック⇔ν:age./utml feat.初音ミク、GUMI    
13. ひまわり/てぃあら feat.GUMI    
14. Last Time to Say/PolyphonicBranch feat.初音ミク    
15. 嘘みたいな想い出~ハイサイおばちゃま爆進記~/150P    


禁止任何转载
22D积分

此帖售价 5 『♭』,已有 25 人购买 [记录] [购买]
购买后,将显示帖子中所有出售内容。
若发现会员采用欺骗的方法获取财富,请立刻举报,我们会对会员处以2-N倍的罚金,严重者封掉ID!
此段为出售的内容,购买后显示
[ 此帖被saintq在2014-11-10 11:56重新编辑 ]
本主题包含附件,请 登录 后查看, 或者 注册 成为会员
4条评分『♥』+1『C』+1『∮』+8『D』+1
rorikon 『♥』 +1 //////// 2013-05-28
alastor 『∮』 +8 日期碉堡了 2013-05-28
alastor 『C』 +1 资源帖奖励 2013-05-28
alastor 『D』 +1 资源帖奖励 2013-05-28
离线saintq
发帖
956
『♭』
6211
『D』
62
『♥』
136
『∮』
306
『C』
50
只看该作者 沙发  发表于: 2013-05-28
Exact Audio Copy V1.0 beta 3 from 29. August 2011

EAC extraction logfile from 28. May 2013, 18:34

V.A. / TIME MACHINE

Used drive  : PIONEER DVD-RW  DVR-112   Adapter: 0  ID: 0

Read mode               : Secure
Utilize accurate stream : Yes
Defeat audio cache      : Yes
Make use of C2 pointers : No

Read offset correction                      : 48
Overread into Lead-In and Lead-Out          : No
Fill up missing offset samples with silence : Yes
Delete leading and trailing silent blocks   : No
Null samples used in CRC calculations       : Yes
Used interface                              : Native Win32 interface for Win NT & 2000

Used output format : Internal WAV Routines
Sample format      : 44.100 Hz; 16 Bit; Stereo


TOC of the extracted CD

     Track |   Start  |  Length  | Start sector | End sector
    ---------------------------------------------------------
        1  |  0:00.00 |  4:50.13 |         0    |    21762  
        2  |  4:50.13 |  4:26.12 |     21763    |    41724  
        3  |  9:16.25 |  3:20.49 |     41725    |    56773  
        4  | 12:36.74 |  4:05.58 |     56774    |    75206  
        5  | 16:42.57 |  4:41.32 |     75207    |    96313  
        6  | 21:24.14 |  3:04.18 |     96314    |   110131  
        7  | 24:28.32 |  4:29.30 |    110132    |   130336  
        8  | 28:57.62 |  4:32.33 |    130337    |   150769  
        9  | 33:30.20 |  4:10.00 |    150770    |   169519  
       10  | 37:40.20 |  4:05.32 |    169520    |   187926  
       11  | 41:45.52 |  3:54.53 |    187927    |   205529  
       12  | 45:40.30 |  3:49.43 |    205530    |   222747  
       13  | 49:29.73 |  4:22.61 |    222748    |   242458  
       14  | 53:52.59 |  4:18.33 |    242459    |   261841  
       15  | 58:11.17 |  3:53.72 |    261842    |   279388  


Range status and errors

Selected range

     Filename G:\V.A. - TIME MACHINE\V.A. - TIME MACHINE.wav

     Peak level 100.0 %
     Extraction speed 8.1 X
     Range quality 100.0 %
     Copy CRC 97B7501B
     Copy OK

No errors occurred


AccurateRip summary

Track  1  not present in database
Track  2  not present in database
Track  3  not present in database
Track  4  not present in database
Track  5  not present in database
Track  6  not present in database
Track  7  not present in database
Track  8  not present in database
Track  9  not present in database
Track 10  not present in database
Track 11  not present in database
Track 12  not present in database
Track 13  not present in database
Track 14  not present in database
Track 15  not present in database

None of the tracks are present in the AccurateRip database

End of status report

==== Log checksum C962C7AF72CAEAC34833A230661793ECF29270999AED7570AB2C1406589D2689 ====
离线g_njl
发帖
2668
『♭』
3
『D』
42
『♥』
196
『∮』
180
『C』
194
只看该作者 板凳  发表于: 2013-05-28
皮卡皮卡~啾啾=3=
离线alastor
发帖
2615
『♭』
4426
『D』
11
『♥』
148
『∮』
62
『C』
31
只看该作者 地板  发表于: 2013-05-28
这算偷跑么,太强了
离线暴走蜗牛
发帖
688
『♭』
2888
『D』
96
『♥』
264
『∮』
664
『C』
122
只看该作者 4坟墓  发表于: 2013-05-28
竟然偷跑不看首周销量,写首曲子黑你哦
离线烂翔
发帖
4007
『♭』
7433
『D』
2
『♥』
217
『∮』
17
『C』
206
只看该作者 5 希腊  发表于: 2013-05-28
好快,还以为要先去弄aac呢
离线烂翔
发帖
4007
『♭』
7433
『D』
2
『♥』
217
『∮』
17
『C』
206
只看该作者 6天桥  发表于: 2013-05-28


某地资源内嵌图还是不够大
本主题包含附件,请 登录 后查看, 或者 注册 成为会员
离线candydre
发帖
1819
『♭』
5350
『D』
6
『♥』
108
『∮』
43
『C』
16
只看该作者 7奶奶的大腿  发表于: 2013-05-28
收下!!
sasakure和jin也是529吧?
翻一下发现都有320了
[ 此帖被candydre在2013-05-29 10:45重新编辑 ]
离线dearviolin
发帖
2238
『♭』
1079
『D』
1
『♥』
410
『∮』
11
『C』
5
只看该作者 8蓝的尾巴  发表于: 2013-05-28
果斷收下的說~
离线shuipu
发帖
129
『♭』
1239
『D』
0
『♥』
5
『∮』
0
『C』
2
只看该作者 ⑨十二号公路  发表于: 2013-05-28
权限不够。。。以后再下吧
离线saintq
发帖
956
『♭』
6211
『D』
62
『♥』
136
『∮』
306
『C』
50
只看该作者 10楼 发表于: 2013-05-28
回 暴走蜗牛 的帖子
暴走蜗牛:竟然偷跑不看首周销量,写首曲子黑你哦 (2013-05-28 20:48) 

.........算出货量就行啦
离线saintq
发帖
956
『♭』
6211
『D』
62
『♥』
136
『∮』
306
『C』
50
只看该作者 11楼 发表于: 2013-05-28
回 金糸雀 的帖子
金糸雀:[图片]
某地资源内嵌图[表情]还是不够大 (2013-05-28 21:45) 

买这张现在有送海报,超级大!!
离线烂翔
发帖
4007
『♭』
7433
『D』
2
『♥』
217
『∮』
17
『C』
206
只看该作者 12楼 发表于: 2013-05-28
回 11楼(saintq) 的帖子
saintq:买这张现在有送海报,超级大!! (2013-05-28 23:05) 

买不起
离线vent
发帖
127
『♭』
1210
『D』
12
『♥』
24
『∮』
54
『C』
12
只看该作者 13楼 发表于: 2013-05-28
居然偷跑了..... 还不够权限下啊QAQ
离线kazuma
发帖
459
『♭』
10003
『D』
0
『♥』
20
『∮』
10
『C』
11
只看该作者 14楼 发表于: 2013-05-29
这……算偷跑吧
离线yangshengqi
发帖
2
『♭』
1
『D』
0
『♥』
1
『∮』
0
『C』
0
只看该作者 15楼 发表于: 2013-05-29
收了··················
1条评分『♭』-5
alastor 『♭』 -5 回复前注意版规(编辑好了我补分) 2013-05-29
离线uhybfv
发帖
1077
『♭』
2089
『D』
8
『♥』
36
『∮』
55
『C』
15
只看该作者 16楼 发表于: 2013-05-29
神速? 好物wwww
离线g_njl
发帖
2668
『♭』
3
『D』
42
『♥』
196
『∮』
180
『C』
194
只看该作者 17楼 发表于: 2013-05-29
网上找到质量较好的封面大图两张和其他三张。
本主题包含附件,请 登录 后查看, 或者 注册 成为会员
1条评分『♥』+1
saintq 『♥』 +1 辛苦了 2013-05-29
离线911
发帖
3852
『♭』
0
『D』
14
『♥』
87
『∮』
109
『C』
20
只看该作者 18楼 发表于: 2013-05-29
本計劃入手,考慮再三還是取消了
如何做到這麼快的速度
离线saintq
发帖
956
『♭』
6211
『D』
62
『♥』
136
『∮』
306
『C』
50
只看该作者 19楼 发表于: 2013-05-29
回 911 的帖子
911:本計劃入手,考慮再三還是取消了
如何做到這麼快的速度 (2013-05-29 14:00) 

用CDjapan(http://www.cdjapan.co.jp/chinese/
国内的话可用支付宝
国外用信用卡
提前预定基本都能偷跑到,还有特典
然后快递选EMS2-4天到,两张一起买邮费人名币折算也就三十五左右一张(直接送到家没有中转,不过只能填英文地址)
另外每次买了东西还会送点数,可以用作下次购买时使用1点=1日元换运费挺合算的。
其他注意事项网站help都有可以去看看不过是英文的。

还有啥具体不懂的可以PM问我~

现在日元汇率下跌厉害的情况下,用直购还是很不错的,淘宝代购什么的已经可以再见了。
[ 此帖被saintq在2013-05-29 19:48重新编辑 ]
4条评分『♥』+3『♭』+2
windscolorme 『♭』 +2 这个甚好! 2013-06-05
wolf_bc 『♥』 +1 專業人士了啊... 2013-05-31
g_njl 『♥』 +1 值得考虑 2013-05-29
ferrari 『♥』 +1 又知道一个不错的地方~ 2013-05-29