论坛风格切换永遠の窄版
  • 1754阅读
  • 18回复

[自抓][101124] 宇多田ヒカル Utada Hikaru SINGLE COLLECTION VOL.2(wav + cue + log) [复制链接]

上一主题 下一主题
离线yukari
 
发帖
541
『♭』
3928
『D』
7
『♥』
8
『∮』
29
『C』
7
只看楼主 倒序阅读 使用道具 楼主  发表于: 2013-04-05



表演者: 宇多田ヒカル
专辑类型: 选集
介质: CD
发行时间: 2010-11-24
出版者: EMIミュージック・ジャパン
唱片数: 2
条型码: 4988006225596


专辑简介:
Utada Hikaru SINGLE COLLECTION VOL.2》是日本女歌手宇多田光第二张精选辑,于2010年11月24日发行,初动23万,累积销量44万。收录了2004年至2009年之间其所有单曲的A面曲,以及包括五首新曲。
本作的封面代表了宇多田光本人的名字“宇”跟“光”。
本作为宇多田光于2011年起暂别歌坛前的最后一张专辑。
是宇多田光首次以新曲+精选的形式发行的专辑。
本作的所有歌曲全有Tie-Up。
为双CD专辑,Disc 1收录2004年的《如愿以偿》至2009年的《Beautiful World -PLANiTb Acoustica Mix-》之间所有日语单曲的A面曲,曲序按发售日期近至远排,《Beautiful World -PLANiTb Acoustica Mix-》则排在Disc 1的最后;Disc 2则收录《Hymne a l'amour ~爱的颂歌~》、《Goodbye Happiness》、《Show Me Love (Not A Dream)》、《Can't Wait 'Til Christmas》和《暴风女神》五首新曲。
在专辑售卖前,宇多田光把过往所有单曲PV以及新曲《Goodbye Happiness》的PV放上Youtube网站。
日本版初回限定盘特典包括:三折纸制外盒,小熊御守,WILD LIFE演唱会门票抽选指南。于11月14日或之前预约购入者亦同时附送一张包含《Goodbye Happiness》PV的DVD。


CD 1 曲目
01.Prisoner Of Love
02.Stay Gold
03.HEART STATION
04.Kiss & Cry
05.Beautiful World
06.Flavor Of Life -Ballad Version-
07.我是熊(ぼくはくま,Boku wa Kuma
08.This Is Love
09.Keep Tryin'
10.Passion
11.Be My Last
12.如愿以偿(誰かの願いが叶うころ,Dareka no Negai ga Kanau Koro
13.Beautiful World -PLANiTb Acoustica Mix-

CD 2 曲目
01.暴风女神(嵐の女神,Arashi no Megami
02.Show Me Love (Not A Dream)
03.Goodbye Happiness
04.Hymne a l'amour ~爱的颂歌~(Hymne a l'amour ~愛のアンセム~,Hymne a l'amour ~Ai no ansemu~)
05.Can't Wait 'Til Christmas




光姐的精选+新曲 VOL.2
这张专辑我更为熟悉吧,有Prisoner Of LoveStay GoldHEART STATIONKiss & Cry等在《Heart Station》这张砖里就有的,还有EVA新剧场版的2首主题曲= =

超经典专辑!!!→




此资源为本人自购自抓,不限制转载(转载请注明),压缩包内有注释。




此帖售价 2 『♭』,已有 15 人购买 [记录] [购买]
购买后,将显示帖子中所有出售内容。
若发现会员采用欺骗的方法获取财富,请立刻举报,我们会对会员处以2-N倍的罚金,严重者封掉ID!
此段为出售的内容,购买后显示






[ 此帖被yukari在2013-04-05 12:43重新编辑 ]
6条评分『♥』+2『C』+1『∮』+4『D』+1『♭』+4
kagamine 『♥』 +1 你是好人【递卡w 2013-05-27
ferrari 『♭』 +4 以大腿的名义 2013-04-05
ferrari 『∮』 +4 - 2013-04-05
ferrari 『♥』 +1 你是好人 2013-04-05
ferrari 『D』 +1 自抓 2013-04-05
ferrari 『C』 +1 资源帖奖励 2013-04-05
离线yukari
发帖
541
『♭』
3928
『D』
7
『♥』
8
『∮』
29
『C』
7
只看该作者 沙发  发表于: 2013-04-05
Exact Audio Copy V1.0 beta 3 from 29. August 2011

EAC extraction logfile from 4. April 2013, 22:59

未知艺术家 / 未知标题

Used drive  : PIONEER BD-RW   BDR-207M   Adapter: 5  ID: 0

Read mode               : Secure
Utilize accurate stream : Yes
Defeat audio cache      : No
Make use of C2 pointers : No

Read offset correction                      : 667
Overread into Lead-In and Lead-Out          : Yes
Fill up missing offset samples with silence : Yes
Delete leading and trailing silent blocks   : No
Null samples used in CRC calculations       : Yes
Used interface                              : Native Win32 interface for Win NT & 2000

Used output format : Internal WAV Routines
Sample format      : 44.100 Hz; 16 Bit; Stereo


TOC of the extracted CD

     Track |   Start  |  Length  | Start sector | End sector
    ---------------------------------------------------------
        1  |  0:00.00 |  4:46.06 |         0    |    21455  
        2  |  4:46.06 |  5:15.54 |     21456    |    45134  
        3  | 10:01.60 |  4:37.22 |     45135    |    65931  
        4  | 14:39.07 |  5:07.50 |     65932    |    89006  
        5  | 19:46.57 |  5:17.24 |     89007    |   112805  
        6  | 25:04.06 |  5:26.26 |    112806    |   137281  
        7  | 30:30.32 |  2:24.23 |    137282    |   148104  
        8  | 32:54.55 |  4:58.13 |    148105    |   170467  
        9  | 37:52.68 |  4:55.18 |    170468    |   192610  
       10  | 42:48.11 |  4:44.70 |    192611    |   213980  
       11  | 47:33.06 |  4:32.10 |    213981    |   234390  
       12  | 52:05.16 |  4:28.35 |    234391    |   254525  
       13  | 56:33.51 |  5:09.74 |    254526    |   277774  


Range status and errors

Selected range

     Filename D:\软件缓存\Exact Audio Copy\Last\未知艺术家 - 未知标题.wav

     Peak level 100.0 %
     Extraction speed 7.0 X
     Range quality 99.9 %
     Copy CRC 223B1AA2
     Copy OK

No errors occurred

End of status report

==== Log checksum 806AD50CA02326211C0018E8DCABAA56350099A502FBD105885F0BEA861A4158 ====

------------------------------------------------------------

Exact Audio Copy V1.0 beta 3 from 29. August 2011

EAC extraction logfile from 4. April 2013, 23:00

未知艺术家 / 未知标题

Used drive  : PIONEER BD-RW   BDR-207M   Adapter: 5  ID: 0

Read mode               : Secure
Utilize accurate stream : Yes
Defeat audio cache      : No
Make use of C2 pointers : No

Read offset correction                      : 667
Overread into Lead-In and Lead-Out          : Yes
Fill up missing offset samples with silence : Yes
Delete leading and trailing silent blocks   : No
Null samples used in CRC calculations       : Yes
Used interface                              : Native Win32 interface for Win NT & 2000

Used output format : Internal WAV Routines
Sample format      : 44.100 Hz; 16 Bit; Stereo


TOC of the extracted CD

     Track |   Start  |  Length  | Start sector | End sector
    ---------------------------------------------------------
        1  |  0:00.00 |  4:46.06 |         0    |    21455  
        2  |  4:46.06 |  5:15.54 |     21456    |    45134  
        3  | 10:01.60 |  4:37.22 |     45135    |    65931  
        4  | 14:39.07 |  5:07.50 |     65932    |    89006  
        5  | 19:46.57 |  5:17.24 |     89007    |   112805  
        6  | 25:04.06 |  5:26.26 |    112806    |   137281  
        7  | 30:30.32 |  2:24.23 |    137282    |   148104  
        8  | 32:54.55 |  4:58.13 |    148105    |   170467  
        9  | 37:52.68 |  4:55.18 |    170468    |   192610  
       10  | 42:48.11 |  4:44.70 |    192611    |   213980  
       11  | 47:33.06 |  4:32.10 |    213981    |   234390  
       12  | 52:05.16 |  4:28.35 |    234391    |   254525  
       13  | 56:33.51 |  5:09.74 |    254526    |   277774  


Range status and errors

Selected range

     Filename D:\软件缓存\Exact Audio Copy\Last\未知艺术家 - 未知标题.wav

     Peak level 100.0 %
     Extraction speed 7.0 X
     Range quality 99.9 %
     Copy CRC 223B1AA2
     Copy OK

No errors occurred

End of status report

==== Log checksum 39C8C17469596895E363112B6EA98529B52E564528FBFBD7DE8E675ABAB70C10 ====
离线yukari
发帖
541
『♭』
3928
『D』
7
『♥』
8
『∮』
29
『C』
7
只看该作者 板凳  发表于: 2013-04-05
Exact Audio Copy V1.0 beta 3 from 29. August 2011

EAC extraction logfile from 4. April 2013, 23:11

未知艺术家 / 未知标题

Used drive  : PIONEER BD-RW   BDR-207M   Adapter: 5  ID: 0

Read mode               : Secure
Utilize accurate stream : Yes
Defeat audio cache      : No
Make use of C2 pointers : No

Read offset correction                      : 667
Overread into Lead-In and Lead-Out          : Yes
Fill up missing offset samples with silence : Yes
Delete leading and trailing silent blocks   : No
Null samples used in CRC calculations       : Yes
Used interface                              : Native Win32 interface for Win NT & 2000

Used output format : Internal WAV Routines
Sample format      : 44.100 Hz; 16 Bit; Stereo


TOC of the extracted CD

     Track |   Start  |  Length  | Start sector | End sector
    ---------------------------------------------------------
        1  |  0:00.00 |  4:16.20 |         0    |    19219  
        2  |  4:16.20 |  4:17.54 |     19220    |    38548  
        3  |  8:33.74 |  5:21.23 |     38549    |    62646  
        4  | 13:55.22 |  6:29.71 |     62647    |    91892  
        5  | 20:25.18 |  3:44.13 |     91893    |   108705  


Range status and errors

Selected range

     Filename D:\软件缓存\Exact Audio Copy\Last\未知艺术家 - 未知标题.wav

     Peak level 100.0 %
     Extraction speed 5.7 X
     Range quality 100.0 %
     Copy CRC 03E3B9FE
     Copy OK

No errors occurred

End of status report

==== Log checksum EC6E2C5BBF20490354F175F1586A4F175192BCBDD5DD15568CCAE4EC925C148F ====

------------------------------------------------------------

Exact Audio Copy V1.0 beta 3 from 29. August 2011

EAC extraction logfile from 4. April 2013, 23:11

未知艺术家 / 未知标题

Used drive  : PIONEER BD-RW   BDR-207M   Adapter: 5  ID: 0

Read mode               : Secure
Utilize accurate stream : Yes
Defeat audio cache      : No
Make use of C2 pointers : No

Read offset correction                      : 667
Overread into Lead-In and Lead-Out          : Yes
Fill up missing offset samples with silence : Yes
Delete leading and trailing silent blocks   : No
Null samples used in CRC calculations       : Yes
Used interface                              : Native Win32 interface for Win NT & 2000

Used output format : Internal WAV Routines
Sample format      : 44.100 Hz; 16 Bit; Stereo


TOC of the extracted CD

     Track |   Start  |  Length  | Start sector | End sector
    ---------------------------------------------------------
        1  |  0:00.00 |  4:16.20 |         0    |    19219  
        2  |  4:16.20 |  4:17.54 |     19220    |    38548  
        3  |  8:33.74 |  5:21.23 |     38549    |    62646  
        4  | 13:55.22 |  6:29.71 |     62647    |    91892  
        5  | 20:25.18 |  3:44.13 |     91893    |   108705  


Range status and errors

Selected range

     Filename D:\软件缓存\Exact Audio Copy\Last\未知艺术家 - 未知标题.wav

     Peak level 100.0 %
     Extraction speed 5.7 X
     Range quality 100.0 %
     Copy CRC 03E3B9FE
     Copy OK

No errors occurred

End of status report

==== Log checksum EC6E2C5BBF20490354F175F1586A4F175192BCBDD5DD15568CCAE4EC925C148F ====
离线冷饮
发帖
1029
『♭』
6280
『D』
0
『♥』
69
『∮』
0
『C』
5
只看该作者 地板  发表于: 2013-04-05
宇多田光,过来捧场..
离线leec
发帖
261
『♭』
2522
『D』
0
『♥』
2
『∮』
0
『C』
0
只看该作者 4坟墓  发表于: 2013-04-06
宇多田光的歌质量还是挺高的,认识她还是First Love,还有很多不错的英文歌
离线wolf_bc
发帖
1394
『♭』
13389
『D』
4
『♥』
66
『∮』
19
『C』
6
只看该作者 5 希腊  发表于: 2013-04-06
很多年前也滿喜歡宇多田的,曲風確實不錯,不過慢慢就涼了...因為歌唱風格感覺基本上沒怎麼變化...
离线莉莉西亚
发帖
189
『♭』
886
『D』
0
『♥』
5
『∮』
0
『C』
0
只看该作者 6天桥  发表于: 2013-04-07
光姐的单曲集啊~正好收下来复习一下~
离线ws6125
发帖
49
『♭』
2545
『D』
1
『♥』
4
『∮』
3
『C』
5
只看该作者 7奶奶的大腿  发表于: 2013-04-10
Beautiful World 福音劇場版主題神曲
雖然First Love比較知名 但是我比較喜歡Beautiful World

离线seedpk5079
发帖
2
『♭』
9
『D』
0
『♥』
0
『∮』
0
『C』
0
只看该作者 8蓝的尾巴  发表于: 2013-05-04
Re:[101124] 宇多田ヒカル
找這張很久囉~~

網上的大部分都是320K的

真的謝謝你了
离线zongeva
发帖
35
『♭』
16
『D』
0
『♥』
0
『∮』
0
『C』
0
只看该作者 ⑨十二号公路  发表于: 2013-05-05
終於找到無損了!
离线tommyking
发帖
6
『♭』
0
『D』
0
『♥』
0
『∮』
0
『C』
0
只看该作者 10楼 发表于: 2013-05-27
thanks so much for share
1条评分『♭』-1
alastor 『♭』 -1 您的贴子无意义 2013-05-27
离线まゆゆ
发帖
1156
『♭』
1472
『D』
7
『♥』
77
『∮』
26
『C』
20
只看该作者 11楼 发表于: 2013-05-27
  我怎么错过了233  
离线x20165
发帖
6
『♭』
-8
『D』
0
『♥』
1
『∮』
0
『C』
0
只看该作者 12楼 发表于: 2013-06-09
感謝大大
這張不錯聽
1条评分『♭』-10
alastor 『♭』 -10 您的贴子无意义 2013-06-10
离线blacktape
发帖
157
『♭』
21
『D』
0
『♥』
1
『∮』
0
『C』
0
只看该作者 13楼 发表于: 2013-11-20
收完vol1,赶来收vol2,我的小男人603已经饥渴难耐了!!
离线z13006910931
发帖
3
『♭』
0
『D』
0
『♥』
0
『∮』
0
『C』
0
只看该作者 14楼 发表于: 2013-11-27
收完vol1,赶来收vol2,我的小男人603已经饥渴难耐了!!
离线qooyyy
发帖
457
『♭』
5816
『D』
0
『♥』
2
『∮』
0
『C』
0
只看该作者 15楼 发表于: 2014-08-26
光姐较近期的就没那么喜欢了 还是早期的好
离线silencer19
发帖
1114
『♭』
2256
『D』
6
『♥』
37
『∮』
47
『C』
6
只看该作者 16楼 发表于: 2014-09-18
passion应该是我(印象中)第一次接触到hikaru的曲..
补上。
离线pps0000
发帖
4
『♭』
7
『D』
0
『♥』
1
『∮』
0
『C』
0
只看该作者 17楼 发表于: 2014-10-29
宇多田的歌实在是好听
离线daneil4444
发帖
2
『♭』
1
『D』
0
『♥』
0
『∮』
0
『C』
0
只看该作者 18楼 发表于: 05-11
好聽 比起其他日本歌手不知道在唱甚麼..